Loading...
Error

ППС. Патрульно-Постовая Служба (1-24 серии из 24) (Виктор Татарский) [2011 г., криминал, детектив, SatRip]

Статистика раздачи
Размер:  11,93 GB   |    Зарегистрирован:  2 года 6 месяцев   |    Скачан:  9 раз

Полного источника не было: 3 месяца 8 дней

Сидов:  0  |  0 KB/s  ]   Личеров:  0  |  0 KB/s  ]

* - сиды/пиры с внешних источников

   
 
Автор Сообщение

nemos Пол:Муж

12-Май-2014 16:54

ППС. Патрульно-Постовая Служба


Год выпуска: 2011
Жанр: криминал, детектив
Страна: Россия
Режиссер: Виктор Татарский
В ролях: Борис Галкин, Полина Воробьева, Роман Притула, Илья Савельев, Сергей Малюгов, Михаил Володин, Иван Мартынов, Егор Будкевич, Никита Агапов, Ирина Крецу
Сюжет фильма:
Главные герои служат в отделе патрульно-постовой службы, они — те самые милиционеры, которые первыми прибывают на место преступления на улицах Санкт-Петербурга, первыми откликаются на просьбы о помощи потерпевших от преступников граждан, находятся в самой гуще городской жизни. Три постовых милиционера — те самые люди, работающие «на земле», ближе всего находящиеся к народу, к его проблемам, заботам и трудностям.Героям приходится сталкиваться практически со всем спектром городских преступлений — от уличных банд, промышляющих разбоем, карманников, подвыпивших хулиганов, рэкетиров, агрессивных пьяниц и наркоманов, участвовать в уличных драках, разнимая и пресекая их, ловить преступников по ориентировкам, выезжать на ограбления магазинов, офисов, частных квартир — нет преступления, на пресечении которого не могли бы быть задействованы постовые.Каждая серия — отдельная, самостоятельная история — в каждой серии герои сталкиваются с новым преступлением. Они могут и утихомиривать разбушевавшегося жильца коммунальной квартиры и, через самое короткое время — уже идти по следу крупного криминального авторитета, сбежавшего из тюрьмы, опознав его по ориентировке.


Качество видео: SatRip

Продолжительность: 00:43:51 серия
Формат: AVI
Видео: XviD, 720x400, 1401 kbps
Аудио: русский, MP3 2.0, 128 kbps

Код:

D:\Фильмы (роздача)\PPS.(24.seriy.iz.24).2012.XviD.SATRip\PPS.(24.seria.iz.24).2012.XviD.SATRip.avi
   General
      Complete name : D:\Фильмы (роздача)\PPS.(24.seriy.iz.24).2012.XviD.SATRip\PPS.(24.seria.iz.24).2012.XviD.SATRip.avi
      Format : AVI
      Format/Info : Audio Video Interleave
      File size : 483 MiB
      Duration : 43mn 51s
      Overall bit rate : 1 539 Kbps
      Writing library : VirtualDub build 32706/release
   Video #0
      ID : 0
      Format : MPEG-4 Visual
      Format profile : Advanced Simple@L5
      Format settings, BVOP : 2
      Format settings, QPel : No
      Format settings, GMC : No warppoints
      Format settings, Matrix : Default (MPEG)
      Codec ID : XVID
      Codec ID/Hint : XviD
      Duration : 43mn 51s
      Bit rate : 1 401 Kbps
      Width : 720 pixels
      Height : 400 pixels
      Display aspect ratio : 16:9
      Frame rate : 25.000 fps
      Color space : YUV
      Chroma subsampling : 4:2:0
      Bit depth : 8 bits
      Scan type : Progressive
      Compression mode : Lossy
      Bits/(Pixel*Frame) : 0.195
      Stream size : 439 MiB (91%)
      Writing library : XviD 1.2.1 (UTC 2008-12-04)
   Audio #1
      ID : 1
      Format : MPEG Audio
      Format version : Version 1
      Format profile : Layer 3
      Mode : Joint stereo
      Mode extension : MS Stereo
      Codec ID : 55
      Codec ID/Hint : MP3
      Duration : 43mn 51s
      Bit rate mode : Constant
      Bit rate : 128 Kbps
      Channel(s) : 2 channels
      Sampling rate : 48.0 KHz
      Compression mode : Lossy
      Stream size : 40.2 MiB (8%)
      Alignment : Split accross interleaves
      Interleave, duration : 40 ms (1.00 video frame)
      Interleave, preload duration : 500 ms
picpicpicpicpicpic
Для увеличения картинки щелкните мышкой по превью

Этот торрент недоступен для скачивания без регистрации, однако доступен по публичной magnet-ссылке (источники с публичных трекеров). Перед использованием ссылки прочтите, пожалуйста Пользовательское соглашение, а также как можно дольше оставайтесь на раздаче! Для того, чтобы скачать сам торрент-файл (который видит больше источников), а также для того, чтобы поблагодарить релизера, вам необходимо зарегистрироваться. Если регистрироваться лень - вы можете также попробовать скачать релиз по нашим партнерским ссылкам ниже.

[underverse.su].t40098.torrent
Трекер: Зарегистрирован   [ 12.05.2014 16:54 ]  

Статус: проверено (by 90ytr90 at 12.05.2014 17:01)
Поблагодарили: пока никто не поблагодарил...
Тип торрента: публичный - доступные источники с открытых трекеров: 
Размер: 11,93 GB (занимает 2,72 DVDR, для записи нужно 3 болванки DVDR/RW)
 
 
Похожие темы
Форум Тема Автор Торрент Отв. Посл. сооб.
xUSSR сериалы ППС. Патрульно-Постовая Служба (2 сезон: 1-32 серия из 32) (Виктор Татарский) [2013 г., детектив, криминал, SatRip] nemos
10 | 2

2 | 2173

11

13.05.2014 14:29


Яндекс.Метрика powered by Sphinx


В Н И М А Н И Е
Сайт не распространяет и не хранит электронные версии произведений, а лишь бесплатно и без коммерческой выгоды (не требуя взамен платы,
SMS и т.д.) предоставляет доступ к создаваемому пользователями каталогу ссылок на торрент-файлы, которые содержат только списки хеш-сумм.
Убедительная просьба с жалобами обращаться напрямую к пользователю, разместившему торрент файл.

Вверх