Loading...
Error

ППС. Патрульно-Постовая Служба (2 сезон: 1-32 серия из 32) (Виктор Татарский) [2013 г., детектив, криминал, SatRip]

Статистика раздачи
Размер:  18,98 GB   |    Зарегистрирован:  2 года 6 месяцев   |    Скачан:  11 раз

Полного источника не было: 3 месяца 9 дней

Сидов:  0  |  0 KB/s  ]   Личеров:  0  |  0 KB/s  ]

* - сиды/пиры с внешних источников

   
 
Автор Сообщение

nemos Пол:Муж

12-Май-2014 16:06

ППС. Патрульно-Постовая Служба 2


Год выпуска: 2013
Жанр: детектив, криминал
Страна: Россия
Режиссер: Виктор Татарский
В ролях: Игорь Вуколов, Андрей Кузнецов, Александр Мосолов, Сергей Горобченко, Егор Пазенко, Николай Чиндяйкин, Роман Агеев, Сергей Шкарбан, Виталий Кудрявцев, Елена Купрашевич
Сюжет фильма:
Экипаж Лукина, Сергеева и Дуброва, так же, как и в первом сезоне, работает «в поле» — в городе, где ежедневно происходят правонарушения разной степени опасности. Полицейские сталкиваются с бытовыми драками, убийствами, семейными разборками, с наркоманами и наркодилерами, квартирными ворами-домушниками, угонщиками машин, уличными хулиганами, пьяными, бомжами — в общем всем тем, что называется «изнанкой большого города».В привычном коллективе появляется новое лицо — Константин Шансов — опер, работающий в отделе вместе со Слоновым и Мурашовым. Помимо мелких хулиганов и районных наркоторговцев у героев появляется серьёзный противник в лице бизнесмена Ильина, человека с криминальным прошлым.


Качество видео: SatRip

Продолжительность: 00:44:42 серия
Формат: AVI
Видео: XviD, 720x400, 1 798 kbps
Аудио: русский, MP3 2.0, 128 kbps

Код:

D:\Фильмы (роздача)\PPS2.2014.SATRip\PPS2.01.2014.SATRip.avi
   General
      Complete name : D:\Фильмы (роздача)\PPS2.2014.SATRip\PPS2.01.2014.SATRip.avi
      Format : AVI
      Format/Info : Audio Video Interleave
      File size : 601 MiB
      Duration : 43mn 23s
      Overall bit rate : 1 935 Kbps
      Writing application : VirtualDubMod 1.5.10.3 | www.virtualdub-fr.org || (build 2550/release)
      Writing library : VirtualDub build 32507/release
   Video #0
      ID : 0
      Format : MPEG-4 Visual
      Format profile : Advanced Simple@L5
      Format settings, BVOP : 2
      Format settings, QPel : No
      Format settings, GMC : No warppoints
      Format settings, Matrix : Default (MPEG)
      Codec ID : XVID
      Codec ID/Hint : XviD
      Duration : 43mn 23s
      Bit rate : 1 798 Kbps
      Width : 720 pixels
      Height : 400 pixels
      Display aspect ratio : 16:9
      Frame rate : 25.000 fps
      Color space : YUV
      Chroma subsampling : 4:2:0
      Bit depth : 8 bits
      Scan type : Progressive
      Compression mode : Lossy
      Bits/(Pixel*Frame) : 0.250
      Stream size : 558 MiB (93%)
      Writing library : XviD 1.2.1 (UTC 2008-12-04)
   Audio #1
      ID : 1
      Format : MPEG Audio
      Format version : Version 1
      Format profile : Layer 3
      Mode : Joint stereo
      Codec ID : 55
      Codec ID/Hint : MP3
      Duration : 43mn 23s
      Bit rate mode : Constant
      Bit rate : 128 Kbps
      Channel(s) : 2 channels
      Sampling rate : 48.0 KHz
      Compression mode : Lossy
      Stream size : 39.7 MiB (7%)
      Alignment : Aligned on interleaves
      Interleave, duration : 40 ms (1.00 video frame)
      Interleave, preload duration : 504 ms
      Writing library : LAME3.99r
      Encoding settings : -m j -V 4 -q 2 -lowpass 17 -b 128
picpicpicpicpicpicpicpicpicpic
Для увеличения картинки щелкните мышкой по превью

Этот торрент недоступен для скачивания без регистрации, однако доступен по публичной magnet-ссылке (источники с публичных трекеров). Перед использованием ссылки прочтите, пожалуйста Пользовательское соглашение, а также как можно дольше оставайтесь на раздаче! Для того, чтобы скачать сам торрент-файл (который видит больше источников), а также для того, чтобы поблагодарить релизера, вам необходимо зарегистрироваться. Если регистрироваться лень - вы можете также попробовать скачать релиз по нашим партнерским ссылкам ниже.

[underverse.su].t40578.torrent
Трекер: Зарегистрирован   [ 30.05.2014 15:51 ]  

Статус: проверено (by Паукан at 05.06.2014 04:10)
Поблагодарили: 2 человека
Тип торрента: публичный - доступные источники с открытых трекеров: 
Размер: 18,98 GB (занимает 4,34 DVDR, для записи нужно 5 болванок DVDR/RW)
 
 
Похожие темы
Форум Тема Автор Торрент Отв. Посл. сооб.
xUSSR сериалы ППС. Патрульно-Постовая Служба (1-24 серии из 24) (Виктор Татарский) [2011 г., криминал, детектив, SatRip] nemos
0 | 0

0 | 878

9

12.05.2014 16:54



Последний раз редактировалось: nemos (06.11.2014 08:26), всего редактировалось 12 раз(а)

nemos Пол:Муж

12-Май-2014 16:55

Первый сезон сериала можете качнуть здесь http://underverse.su/viewtopic.php?p=175748#175748

nemos Пол:Муж

13-Май-2014 14:29

Внимание! Данная раздача обновлена 32 серии.

Яндекс.Метрика powered by Sphinx


В Н И М А Н И Е
Сайт не распространяет и не хранит электронные версии произведений, а лишь бесплатно и без коммерческой выгоды (не требуя взамен платы,
SMS и т.д.) предоставляет доступ к создаваемому пользователями каталогу ссылок на торрент-файлы, которые содержат только списки хеш-сумм.
Убедительная просьба с жалобами обращаться напрямую к пользователю, разместившему торрент файл.

Вверх