Loading...
Error

Дознаватель 2 (1-32 серия из 32) (Андрей Коршунов) [2013 г., детектив, криминал, SatRip]

Статистика раздачи
Размер:  19,23 GB   |    Зарегистрирован:  2 года 5 месяцев   |    Скачан:  6 раз

Полного источника не было: 3 месяца 29 дней

Сидов:  0  |  0 KB/s  ]   Личеров:  0  |  0 KB/s  ]

* - сиды/пиры с внешних источников

   
 
Автор Сообщение

nemos Пол:Муж

12-Май-2014 15:04

Дознаватель 2


Год выпуска: 2013
Жанр: детектив, криминал
Страна: Россия
Режиссер: Андрей Коршунов
В ролях: Яков Шамшин, Кирилл Полухин, Екатерина Кочубеева, Артур Мкртчян, Егор Бакулин, Иван Васильев, Вячеслав Аркунов, Вероника Дмитриева, Дмитрий Олейник, Мария Безносова
Сюжет фильма:
Главный герой Александр Суворов продолжает работать дознавателем в одном из городских РУВД, придерживаясь принципа, что «простых преступлений не бывает». Именно поэтому Суворов вместо того, чтобы заниматься вроде бы простой кабинетной работой, вечно сует свой нос куда не надо, выходя за рамки своих полномочий. Ему всегда надо докопаться до истины, полностью разобраться в ситуации. Поэтому нет ничего удивительного, что Суворов вместе с друзьями вечно влипает в опасные криминальные ситуации, тем не менее, всегда выходя из них победителем.Суворов, Мелкумян и Кухарьков стали капитанами, Марина стала майором, а вот Толю Хоменко в звании обделили, несмотря на всего его заслуги, поэтому он обижен на коллег и всячески это подчеркивает. В Санкт-Петербург из Москвы возвращаются родители Суворова. В Москве отец Саши занимал серьезный пост в правительстве, а в Питер переведен, что называется, «на усиление». Теперь он работает в администрации города. У Суворова не простые отношения с отцом. Тот не понимает, почему сын работает простым дознавателем, ведь с его помощью, он мог бы шагнуть гораздо выше!


Качество видео: SatRip

Продолжительность: 00:46:20 серия
Формат: AVI
Видео: XviD, 720х400, 1800 kbps
Аудио: русский, MP3 2.0, 128 kbps

Код:

D:\Фильмы (роздача)\Doznavatel-2.2014.SATRip\Doznavatel-2.01.2014.SATRip.avi
   General
      Complete name : D:\Фильмы (роздача)\Doznavatel-2.2014.SATRip\Doznavatel-2.01.2014.SATRip.avi
      Format : AVI
      Format/Info : Audio Video Interleave
      File size : 642 MiB
      Duration : 46mn 20s
      Overall bit rate : 1 938 Kbps
      Writing application : VirtualDubMod 1.5.10.3 | www.virtualdub-fr.org || (build 2550/release)
      Writing library : VirtualDub build 32507/release
   Video #0
      ID : 0
      Format : MPEG-4 Visual
      Format profile : Advanced Simple@L5
      Format settings, BVOP : 2
      Format settings, QPel : No
      Format settings, GMC : No warppoints
      Format settings, Matrix : Default (MPEG)
      Codec ID : XVID
      Codec ID/Hint : XviD
      Duration : 46mn 20s
      Bit rate : 1 800 Kbps
      Width : 720 pixels
      Height : 400 pixels
      Display aspect ratio : 16:9
      Frame rate : 25.000 fps
      Color space : YUV
      Chroma subsampling : 4:2:0
      Bit depth : 8 bits
      Scan type : Progressive
      Compression mode : Lossy
      Bits/(Pixel*Frame) : 0.250
      Stream size : 597 MiB (93%)
      Writing library : XviD 1.2.1 (UTC 2008-12-04)
   Audio #1
      ID : 1
      Format : MPEG Audio
      Format version : Version 1
      Format profile : Layer 3
      Mode : Joint stereo
      Codec ID : 55
      Codec ID/Hint : MP3
      Duration : 46mn 20s
      Bit rate mode : Constant
      Bit rate : 128 Kbps
      Channel(s) : 2 channels
      Sampling rate : 48.0 KHz
      Compression mode : Lossy
      Stream size : 42.4 MiB (7%)
      Alignment : Aligned on interleaves
      Interleave, duration : 40 ms (1.00 video frame)
      Interleave, preload duration : 504 ms
      Writing library : LAME3.99r
      Encoding settings : -m j -V 4 -q 2 -lowpass 17 -b 128
picpicpicpicpicpicpicpicpicpicpic
Для увеличения картинки щелкните мышкой по превью

Этот торрент недоступен для скачивания без регистрации, однако доступен по публичной magnet-ссылке (источники с публичных трекеров). Перед использованием ссылки прочтите, пожалуйста Пользовательское соглашение, а также как можно дольше оставайтесь на раздаче! Для того, чтобы скачать сам торрент-файл (который видит больше источников), а также для того, чтобы поблагодарить релизера, вам необходимо зарегистрироваться. Если регистрироваться лень - вы можете также попробовать скачать релиз по нашим партнерским ссылкам ниже.

[underverse.su].t40934.torrent
Трекер: Зарегистрирован   [ 11.06.2014 19:23 ]  

Статус: проверено (by nemos at 11.06.2014 19:23)
Поблагодарили: 3 человека
Тип торрента: публичный - доступные источники с открытых трекеров: 
Размер: 19,23 GB (занимает 4,39 DVDR, для записи нужно 5 болванок DVDR/RW)
 
 
Похожие темы
Форум Тема Автор Торрент Отв. Посл. сооб.
xUSSR сериалы Дознаватель [1-24 серии из 24] (Андрей Коршунов, Инесса Юрченко) [2012 г., криминал, детектив, SATRip] nemos
0 | 0

1 | 1074

0

09.06.2014 12:26



Последний раз редактировалось: nemos (06.11.2014 07:55), всего редактировалось 16 раз(а)

nemos Пол:Муж

12-Май-2014 16:57

Первый сезон - Дознаватель [1-24 серии из 24] можете качнуть здесь- http://underverse.su/viewtopic.php?t=20697&spmode=full#seeders

nemos Пол:Муж

13-Май-2014 14:31

Внимание! Данная раздача обновлена 32 серии.

Яндекс.Метрика powered by Sphinx


В Н И М А Н И Е
Сайт не распространяет и не хранит электронные версии произведений, а лишь бесплатно и без коммерческой выгоды (не требуя взамен платы,
SMS и т.д.) предоставляет доступ к создаваемому пользователями каталогу ссылок на торрент-файлы, которые содержат только списки хеш-сумм.
Убедительная просьба с жалобами обращаться напрямую к пользователю, разместившему торрент файл.

Вверх