Loading...
Error

Экстрасенсы ведут расследование - 4 Сезона (50 выпусков) (Олег Чаурс) [2011 - 2013, Паранормальное шоу, SATRip]

Статистика раздачи
Размер:  28,73 GB   |    Зарегистрирован:  2 года 6 месяцев   |    Скачан:  3 раза

Полного источника не было: 1 год 10 месяцев

Сидов:  0  |  0 KB/s  ]   Личеров:  0  |  0 KB/s  ]

* - сиды/пиры с внешних источников

   
 
Автор Сообщение

uzi2009 Пол:Муж

11-Май-2014 19:41

Экстрасенсы ведут расследование - 4 Сезона


Страна: Россия
Жанр: Паранормальное шоу
Перевод: Не требуется
Русские субтитры: нет
Режиссер: Олег Чаурс
Телеканал: ТНТ

Описание: Документальный детективный сериал, в котором принимают участие самые лучшие российские экстрасенсы. Эту передачу нельзя отнести просто к развлекательному шоу, скорей всего, это показ настоящей силы и возможностей людей, обладающих экстрасенсорными и паранормальными способностями.

Вы увидите, что такие люди могут оказывать реальную помощь окружающим - они ищут пропавших безвести, возвращают владельцам их угнанные транспортные средства, очищают помещения от призраков и восстанавливают отношения в семьях.
Фильм позволит зрителю как бы самому поучаствовать в каждом из этапов расследования, которым заняты ясновидцы.

Все происходящие события комментируются самими свидетелями и следователями, которые вели расследование, что ещё раз подтверждает всю правдивость происходящего на экране. Но больше всего интересно то, как экстрасенсы, у которых есть такие потрясающие способности, просто живут обычной для себя жизнью.

Доп. информация: Актеры, принявшие участие в съемках: Экстрасенсы, следователи, криминалисты, пострадавшие и их родственники.

качество: SATRip
формат: AVI
Проигрывается на всех бытовых DVD плеерах

Первый сезон
Видео: 640x480 (1.33:1), 25 fps, XviD MPEG-4 ~1376 kbps avg, 0.18 bit/pixel
Аудио: 48 kHz, MPEG Layer 3, 1 ch, ~128.00 kbps avg
Продолжительность: 1x00:47:37,2x00:47:43,3x00:47:51,4x00:45:52,5x00:47:54,6x00:46:59,7x00:46:33,8x00:47:12.

MediaInfo


GeneralComplete name : D:\Видео\Документальные видео\Русское\Экстрасенсы ведут расследование\Сезон 01\Экстрасенсы ведут расследование. Все Выпуски 1 сезона .aviFormat : AVIFormat/Info : Audio Video InterleaveFile size : 516 MiBDuration : 47mn 37sOverall bit rate : 1 515 KbpsWriting application : VirtualDubMod 1.5.10.2 (build 2540/release)Writing library : VirtualDub build 32706/release

VideoID : 0Format : MPEG-4 VisualFormat profile : Advanced Simple@L5Format settings, BVOP : 2Format settings, QPel : NoFormat settings, GMC : No warppointsFormat settings, Matrix : Default (MPEG)Muxing mode : Packed bitstreamCodec ID : XVIDCodec ID/Hint : XviDDuration : 47mn 37sBit rate : 1 377 KbpsWidth : 640 pixelsHeight : 480 pixelsDisplay aspect ratio : 4:3Frame rate : 25.000 fpsColor space : YUVChroma subsampling : 4:2:0Bit depth : 8 bitsScan type : ProgressiveCompression mode : LossyBits/(Pixel*Frame) : 0.179Stream size : 469 MiB (91%)Writing library : XviD 1.2.1 (UTC 2008-12-04)

AudioID : 1Format : MPEG AudioFormat version : Version 1Format profile : Layer 3Codec ID : 55Codec ID/Hint : MP3Duration : 47mn 37sBit rate mode : ConstantBit rate : 128 KbpsChannel count : 1 channelSampling rate : 48.0 KHzCompression mode : LossyStream size : 43.6 MiB (8%)Alignment : Aligned on interleavesInterleave, duration : 40 ms (1.00 video frame)Interleave, preload duration : 504 ms

Второй сезон
Видео: 704x528 (1.33:1), 25 fps, DivX Codec 6.8.5/6.9.1 ~1800 kbps avg, 0.19 bit/pixel
Аудио: 48 kHz, Microsoft MPEG, 1 ch, ~128.00 kbps avg
Продолжительность: 1x00:47:30,2x00:47:31,3x00:48:00,4x00:47:42,5x00:47:39,6x00:47:40,7x00:47:25,8x00:47:38.

MediaInfo


GeneralComplete name : D:\Видео\Документальные видео\Русское\Экстрасенсы ведут расследование\Сезон 02\Экстрасенсы ведут расследование. Все Выпуски 2 Сезона.aviFormat : AVIFormat/Info : Audio Video InterleaveFile size : 659 MiBDuration : 47mn 30sOverall bit rate : 1 938 KbpsWriting application : VirtualDubModRus 1.5.10.1 (build 2439/release)Writing library : VirtualDubMod build 2439/release

VideoID : 0Format : MPEG-4 VisualFormat settings, BVOP : 2Format settings, QPel : NoFormat settings, GMC : No warppointsFormat settings, Matrix : Default (H.263)Muxing mode : Packed bitstreamCodec ID : DX50Codec ID/Hint : DivX 5Duration : 47mn 30sBit rate : 1 801 KbpsWidth : 704 pixelsHeight : 528 pixelsDisplay aspect ratio : 4:3Frame rate : 25.000 fpsColor space : YUVChroma subsampling : 4:2:0Bit depth : 8 bitsScan type : ProgressiveCompression mode : LossyBits/(Pixel*Frame) : 0.194Stream size : 612 MiB (93%)Writing library : DivX 6.8.5 (UTC 2009-08-20)

AudioID : 1Format : MPEG AudioFormat version : Version 1Format profile : Layer 2Codec ID : 50Duration : 47mn 30sBit rate mode : ConstantBit rate : 128 KbpsChannel count : 1 channelSampling rate : 48.0 KHzCompression mode : LossyStream size : 43.5 MiB (7%)Alignment : Aligned on interleavesInterleave, duration : 40 ms (1.00 video frame)Interleave, preload duration : 504 ms

Третий сезон
Видео: 704x528 (1.33:1), 25 fps, XviD MPEG-4 ~1644 kbps avg, 0.18 bit/pixel
Аудио: 44.100 kHz, MPEG Layer 3, 2 ch, ~128.00 kbps avg
Продолжительность: 1x00:48:02,2x00:48:01,3x00:47:29,4x00:47:50,5x00:48:00,6x00:47:34,7x00:47:49,8x00:47:45,9x00:47:46,10x00:47:49,11x00:47:46,12x00:48:07,13x00:47:46,14x00:47:52,15x00:47:48,16x00:47:39,17x00:47:37.

MediaInfo


GeneralComplete name : D:\Видео\Документальные видео\Русское\Экстрасенсы ведут расследование\Сезон 03\Экстрасенсы ведут расследование. Все Выпуски 3 Сезона.aviFormat : AVIFormat/Info : Audio Video InterleaveFile size : 612 MiBDuration : 48mn 2sOverall bit rate : 1 782 KbpsWriting library : VirtualDub build 32842/release

VideoID : 0Format : MPEG-4 VisualFormat profile : Advanced Simple@L5Format settings, BVOP : 2Format settings, QPel : NoFormat settings, GMC : No warppointsFormat settings, Matrix : Default (H.263)Muxing mode : Packed bitstreamCodec ID : XVIDCodec ID/Hint : XviDDuration : 48mn 2sBit rate : 1 645 KbpsWidth : 704 pixelsHeight : 528 pixelsDisplay aspect ratio : 4:3Frame rate : 25.000 fpsColor space : YUVChroma subsampling : 4:2:0Bit depth : 8 bitsScan type : ProgressiveCompression mode : LossyBits/(Pixel*Frame) : 0.177Stream size : 565 MiB (92%)Writing library : XviD 64

AudioID : 1Format : MPEG AudioFormat version : Version 1Format profile : Layer 3Mode : Joint stereoMode extension : MS StereoCodec ID : 55Codec ID/Hint : MP3Duration : 48mn 2sBit rate mode : ConstantBit rate : 128 KbpsChannel count : 2 channelsSampling rate : 44.1 KHzCompression mode : LossyStream size : 44.0 MiB (7%)Alignment : Split accross interleavesInterleave, duration : 40 ms (1.00 video frame)Interleave, preload duration : 500 msWriting library : LAME3.98.2

Четвертый сезон
Видео: 720x528 (1.36:1), 25 fps, XviD build 50 ~1801 kbps avg, 0.19 bit/pixel
Аудио: 48 kHz, MPEG Layer 3, 2 ch, ~128.00 kbps avg
Продолжительность: 1x00:47:19,2x00:47:56,3x00:47:38,4x00:47:58,5x00:46:42,6x00:47:37,7x00:47:33,8x00:47:11,9x00:47:37,10x00:47:33,11x00:47:45,12x00:48:18,13x00:47:33,14x00:47:31,15x00:48:59,16x00:48:59,17x00:48:13.

MediaInfo


GeneralComplete name : D:\Видео\Документальные видео\Русское\Экстрасенсы ведут расследование\Сезон 04\Экстрасенсы ведут расследование. Все Выпуски 4 Сезона.aviFormat : AVIFormat/Info : Audio Video InterleaveFile size : 656 MiBDuration : 47mn 19sOverall bit rate : 1 939 KbpsWriting application : VirtualDubMod 1.5.10.2 (build 2542/release)Writing library : VirtualDubMod build 2542/release

VideoID : 0Format : MPEG-4 VisualFormat profile : Advanced Simple@L5Format settings, BVOP : 2Format settings, QPel : NoFormat settings, GMC : No warppointsFormat settings, Matrix : Default (MPEG)Codec ID : XVIDCodec ID/Hint : XviDDuration : 47mn 19sBit rate : 1 801 KbpsWidth : 720 pixelsHeight : 528 pixelsDisplay aspect ratio : 4:3Frame rate : 25.000 fpsColor space : YUVChroma subsampling : 4:2:0Bit depth : 8 bitsScan type : ProgressiveCompression mode : LossyBits/(Pixel*Frame) : 0.190Stream size : 610 MiB (93%)Writing library : XviD 1.2.1 (UTC 2008-12-04)

AudioID : 1Format : MPEG AudioFormat version : Version 1Format profile : Layer 3Mode : Joint stereoMode extension : MS StereoCodec ID : 55Codec ID/Hint : MP3Duration : 47mn 19sBit rate mode : ConstantBit rate : 128 KbpsChannel count : 2 channelsSampling rate : 48.0 KHzCompression mode : LossyDelay relative to video : 16msStream size : 43.3 MiB (7%)Alignment : Split accross interleavesInterleave, duration : 40 ms (1.00 video frame)Interleave, preload duration : 500 ms

Скриншоты
pic pic pic pic pic

Этот торрент недоступен для скачивания без регистрации, однако доступен по публичной magnet-ссылке (источники с публичных трекеров). Перед использованием ссылки прочтите, пожалуйста Пользовательское соглашение, а также как можно дольше оставайтесь на раздаче! Для того, чтобы скачать сам торрент-файл (который видит больше источников), а также для того, чтобы поблагодарить релизера, вам необходимо зарегистрироваться. Если регистрироваться лень - вы можете также попробовать скачать релиз по нашим партнерским ссылкам ниже.

[underverse.su].t40064.torrent
Трекер: Зарегистрирован   [ 11.05.2014 19:41 ]  

Статус: проверено (by Паукан at 12.05.2014 08:33)
Поблагодарили: пока никто не поблагодарил...
Тип торрента: публичный - доступные источники с открытых трекеров: 
Размер: 28,73 GB (занимает 6,56 DVDR, для записи нужно 7 болванок DVDR/RW)
 
 
Похожие темы
Форум Тема Автор Торрент Отв. Посл. сооб.
T Зарубежное кино [DVDRip, Low-Res HDRip, и т.д.] Экстрасенсы / Утешение / Solace (Афонсо Пойарт / Afonso Poyart) [2015 г., триллер, детектив, BDRip-AVC] Dub (iTunes) + Original (Eng) + Sub (Eng) 90ytr90
82 | 2

0 | 225

10

18.11.2016 15:24

T Зарубежное кино [DVDRip, Low-Res HDRip, и т.д.] Экстрасенсы / Утешение / Solace (Афонсо Пойарт / Afonso Poyart) [2015 г., триллер, детектив, BDRip-AVC] Dub (iTunes) + Sub (Eng) 90ytr90
191 | 5

0 | 207

6

18.11.2016 15:20

T Зарубежное кино [DVDRip, Low-Res HDRip, и т.д.] Экстрасенсы / Утешение / Solace (Афонсо Пойарт / Afonso Poyart) [2015 г., триллер, детектив, HDRip] Dub (iTunes) 90ytr90
121 | 1

0 | 187

3

18.11.2016 15:05

Зарубежное кино [DVDRip, Low-Res HDRip, и т.д.] Экстрасенс 2: Лабиринты разума / Mindscape / Anna (Хорхе С. Дорадо) [2013 г., триллер, драма, WEB-DLRip] VO [datynet] Паукан
0 | 0

0 | 2499

36

12.05.2014 08:42

T Зарубежное кино [DVDRip, Low-Res HDRip, и т.д.] Экстрасенс 2: Лабиринты разума / Mindscape (Хорхе С. Дорадо / Jorge Dorado) [2013, триллер, драма, HDRip] Dub (RUS) + Original (ENG) |Звук с TS| viktor.r-79
0 | 0

0 | 915

29

13.11.2014 11:04

T Зарубежное кино [DVDRip, Low-Res HDRip, и т.д.] Экстрасенс 2: Лабиринты разума / Mindscape / Anna (Хорхе С. Дорадо / Jorge Dorado) [2013 г., триллер, драма, HDRip] Dub (чистый звук) 90ytr90
3 | 0

0 | 440

23

24.11.2014 18:10

Зарубежное кино [DVDRip, Low-Res HDRip, и т.д.] Экстрасенсы / Утешение / Solace (Афонсо Пойарт / Afonso Poyart) [2015 г., триллер, детектив, HDRip] MVO (ProSound) 90ytr90
182 | 1

1 | 877

45

26.02.2016 14:57

T Зарубежное кино [DVDRip, Low-Res HDRip, и т.д.] Экстрасенсы / Утешение / Solace (Афонсо Пойарт) [2015 г., триллер, детектив, HDRip] Dub makkol
42 | 0

0 | 818

89

14.04.2016 13:30

Зарубежное кино HQ Экстрасенс / The Awakening (Ник Мерфи) [2011 г., ужасы, триллер, HDRip] (Rus, Eng) HQ Underverse HQ Underverse
0 | 0

1 | 2008

29

03.04.2012 12:30

Другие фильмы Экстрасенсы ведут расследование / Сезон 5 / Серии 1-10 из 10 (Ирина Сметанова) [2014 г., Паронормальное шоу, WEB-DLRip] ya_malder
6 | 0

1 | 1388

4

04.02.2015 04:32


Яндекс.Метрика powered by Sphinx


В Н И М А Н И Е
Сайт не распространяет и не хранит электронные версии произведений, а лишь бесплатно и без коммерческой выгоды (не требуя взамен платы,
SMS и т.д.) предоставляет доступ к создаваемому пользователями каталогу ссылок на торрент-файлы, которые содержат только списки хеш-сумм.
Убедительная просьба с жалобами обращаться напрямую к пользователю, разместившему торрент файл.

Вверх