Loading...
Error

Бой местного значения (Алексей Козлов) [2008 г., драма, военный, DVDRip]

Статистика раздачи
Размер:  1,37 GB   |    Зарегистрирован:  2 года 6 месяцев   |    Скачан:  24 раза

Полного источника не было: 9 месяцев

Сидов:  0  |  0 KB/s  ]   Личеров:  0  |  0 KB/s  ]

* - сиды/пиры с внешних источников

   
 
Автор Сообщение

nemos Пол:Муж

09-Май-2014 20:39

Бой местного значения


Год выпуска: 2008
Жанр: драма, военный
Страна: Россия
Режиссер: Алексей Козлов
В ролях: Алексей Бардуков, Николай Добрынин, Алексей Зубков, Дмитрий Сутырин, Сергей Шеховцов, Владислав Бендерский, Александр Александров, Кристина Бабушкина, Елена Радевич, Ольга Завьялова
Сюжет фильма:
Конец 1943 года. Подразделение советских солдат во главе с молодым, ещё не нюхавшим войны, младшим лейтенантом останавливается в глухой деревеньке, стоящей в стороне от главных дорог. Её жители за всё время войны ни разу не видели немцев, поэтому внезапное появление здесь отборных диверсантов СС стало для всех полной неожиданностью…

  • Российская премьера: 8 мая 2008

Качество видео: DVDRip

Продолжительность: 01:35:00
Формат: AVI
Видео: XviD, 704x352, 1595 kbps
Аудио: русский, AC3 5.1, 448 kbps

Код:

D:\Фильмы (роздача)\Boj.mestnogo.znacheniya.2007.XviD.DVDRip.*другой трекер*.avi
   General
      Complete name : D:\Фильмы (роздача)\Boj.mestnogo.znacheniya.2007.XviD.DVDRip.*другой трекер*.avi
      Format : AVI
      Format/Info : Audio Video Interleave
      File size : 1.37 GiB
      Duration : 1h 35mn
      Overall bit rate : 2 052 Kbps
      Writing application : VirtualDubMod 1.5.4.1 (build 2178/release)
      Writing library : VirtualDubMod build 2178/release
   Video #0
      ID : 0
      Format : MPEG-4 Visual
      Format profile : Advanced Simple@L5
      Format settings, BVOP : 1
      Format settings, QPel : No
      Format settings, GMC : No warppoints
      Format settings, Matrix : Custom
      Codec ID : XVID
      Codec ID/Hint : XviD
      Duration : 1h 35mn
      Bit rate : 1 595 Kbps
      Width : 704 pixels
      Height : 352 pixels
      Display aspect ratio : 2.000
      Frame rate : 25.000 fps
      Color space : YUV
      Chroma subsampling : 4:2:0
      Bit depth : 8 bits
      Scan type : Progressive
      Compression mode : Lossy
      Bits/(Pixel*Frame) : 0.257
      Stream size : 1.06 GiB (78%)
      Writing library : XviD 1.2.0.dev47 (UTC 2006-11-01)
   Audio #1
      ID : 1
      Format : AC-3
      Format/Info : Audio Coding 3
      Mode extension : CM (complete main)
      Format settings, Endianness : Big
      Codec ID : 2000
      Duration : 1h 35mn
      Bit rate mode : Constant
      Bit rate : 448 Kbps
      Channel(s) : 6 channels
      Channel positions : Front: L C R, Side: L R, LFE
      Sampling rate : 48.0 KHz
      Bit depth : 16 bits
      Compression mode : Lossy
      Delay relative to video : 12ms
      Stream size : 306 MiB (22%)
      Alignment : Split accross interleaves
      Interleave, duration : 40 ms (1.00 video frame)
      Interleave, preload duration : 500 ms
picpicpicpicpicpic
Для увеличения картинки щелкните мышкой по превью

Этот торрент недоступен для скачивания без регистрации, однако доступен по публичной magnet-ссылке (источники с публичных трекеров). Перед использованием ссылки прочтите, пожалуйста Пользовательское соглашение, а также как можно дольше оставайтесь на раздаче! Для того, чтобы скачать сам торрент-файл (который видит больше источников), а также для того, чтобы поблагодарить релизера, вам необходимо зарегистрироваться. Если регистрироваться лень - вы можете также попробовать скачать релиз по нашим партнерским ссылкам ниже.

[underverse.su].t40030.torrent
Трекер: Зарегистрирован   [ 09.05.2014 20:39 ]  

Статус: проверено (by Паукан at 12.05.2014 06:47)
Поблагодарили: пока никто не поблагодарил...
Тип торрента: публичный - доступные источники с открытых трекеров: 
Размер: 1,37 GB (занимает 0,31 DVDR, для записи нужно 1 болванка DVDR/RW)
 
 

Яндекс.Метрика powered by Sphinx


В Н И М А Н И Е
Сайт не распространяет и не хранит электронные версии произведений, а лишь бесплатно и без коммерческой выгоды (не требуя взамен платы,
SMS и т.д.) предоставляет доступ к создаваемому пользователями каталогу ссылок на торрент-файлы, которые содержат только списки хеш-сумм.
Убедительная просьба с жалобами обращаться напрямую к пользователю, разместившему торрент файл.

Вверх