Loading...
Error

Под каменным небом (Кнут Андерсен, Игорь Масленников) [1974 г., драма, военный, DVDRip]

Статистика раздачи
Размер:  1,37 GB   |    Зарегистрирован:  2 года 6 месяцев   |    Скачан:  16 раз

Полного источника не было: 2 месяца 2 дня

Сидов:  0  |  0 KB/s  ]   Личеров:  0  |  0 KB/s  ]

* - сиды/пиры с внешних источников

   
 
Автор Сообщение

nemos Пол:Муж

09-Май-2014 14:41

Под каменным небом


Год выпуска: 1974
Жанр: драма, военный
Страна: Норвегия, СССР
Режиссер: Кнут Андерсен, Игорь Масленников
В ролях: Арни Ли, Веслемой Хаслунд, Бернард Рамстад, Дэн Фоссе, Рагнхильд Михельсен, Зольфрид Хейер, Нилс Утси, Турлейф Рейсс, Евгений Леонов, Николай Бурляев
Сюжет фильма:
Осенью 1944 года вопреки приказу гитлеровского командования об эвакуации на юг жители норвежского городка Киркенеса укрылись в заброшенной шахте. Командованию Советской Армии стало известно о намерениях гитлеровцев взорвать старые штольни города, но советским солдатам удалось предотвратить трагедию.

  • Мировая премьера: 25 октября 1974

Качество видео: DVDRip

Продолжительность: 01:23:00
Формат: AVI
Видео: DivX, 704x528, 2128 kbps
Аудио: русский, AC3 2.0, 192 kbps

Код:

D:\Фильмы (роздача)\Pod_kamennim_nebom_DVDRip.avi
   General
      Complete name : D:\Фильмы (роздача)\Pod_kamennim_nebom_DVDRip.avi
      Format : AVI
      Format/Info : Audio Video Interleave
      File size : 1.37 GiB
      Duration : 1h 23mn
      Overall bit rate : 2 330 Kbps
      Writing application : VirtualDubModRus 1.5.10.2 (build 2542/release)
      Writing library : VirtualDubMod build 2542/release
   Video #0
      ID : 0
      Format : MPEG-4 Visual
      Format settings, BVOP : 1
      Format settings, QPel : No
      Format settings, GMC : No warppoints
      Format settings, Matrix : Default (H.263)
      Muxing mode : Packed bitstream
      Codec ID : DX50
      Codec ID/Hint : DivX 5
      Duration : 1h 23mn
      Bit rate : 2 128 Kbps
      Width : 704 pixels
      Height : 528 pixels
      Display aspect ratio : 4:3
      Frame rate : 25.000 fps
      Color space : YUV
      Chroma subsampling : 4:2:0
      Bit depth : 8 bits
      Scan type : Progressive
      Compression mode : Lossy
      Bits/(Pixel*Frame) : 0.229
      Stream size : 1.25 GiB (91%)
      Writing library : DivX 6.8.3-6.8.4 (UTC 2008-06-07)
   Audio #1
      ID : 1
      Format : AC-3
      Format/Info : Audio Coding 3
      Mode extension : CM (complete main)
      Format settings, Endianness : Big
      Codec ID : 2000
      Duration : 1h 23mn
      Bit rate mode : Constant
      Bit rate : 192 Kbps
      Channel(s) : 2 channels
      Channel positions : Front: L R
      Sampling rate : 48.0 KHz
      Bit depth : 16 bits
      Compression mode : Lossy
      Stream size : 115 MiB (8%)
      Alignment : Aligned on interleaves
      Interleave, duration : 40 ms (1.00 video frame)
      Interleave, preload duration : 512 ms
picpicpicpicpicpicpicpicpic
Для увеличения картинки щелкните мышкой по превью

Этот торрент недоступен для скачивания без регистрации, однако доступен по публичной magnet-ссылке (источники с публичных трекеров). Перед использованием ссылки прочтите, пожалуйста Пользовательское соглашение, а также как можно дольше оставайтесь на раздаче! Для того, чтобы скачать сам торрент-файл (который видит больше источников), а также для того, чтобы поблагодарить релизера, вам необходимо зарегистрироваться. Если регистрироваться лень - вы можете также попробовать скачать релиз по нашим партнерским ссылкам ниже.

[underverse.su].t40006.torrent
Трекер: Зарегистрирован   [ 09.05.2014 14:41 ]  

Статус: проверено (by 90ytr90 at 12.05.2014 19:28)
Поблагодарили: 1 человек
Тип торрента: публичный - доступные источники с открытых трекеров: 
Размер: 1,37 GB (занимает 0,31 DVDR, для записи нужно 1 болванка DVDR/RW)
 
 

Яндекс.Метрика powered by Sphinx


В Н И М А Н И Е
Сайт не распространяет и не хранит электронные версии произведений, а лишь бесплатно и без коммерческой выгоды (не требуя взамен платы,
SMS и т.д.) предоставляет доступ к создаваемому пользователями каталогу ссылок на торрент-файлы, которые содержат только списки хеш-сумм.
Убедительная просьба с жалобами обращаться напрямую к пользователю, разместившему торрент файл.

Вверх