Loading...
Error

Не покидай меня (4 серии из 4) (Александр Франскевич-Лайе) [2013 г., мелодрама, военный, история, SatRip]

Статистика раздачи
Размер:  2,31 GB   |    Зарегистрирован:  2 года 6 месяцев   |    Скачан:  20 раз
Сидов:  1  |  137 KB/s  ]   Личеров:  0  |  0 KB/s  ]

* - сиды/пиры с внешних источников

   
 
Автор Сообщение

nemos Пол:Муж

09-Май-2014 13:10


Год выпуска: 2013
Жанр: мелодрама, военный, история
Страна: Россия
Режиссер: Александр Франскевич-Лайе
В ролях: Алексей Гуськов, Евгения Брик, Наталия Быстрова, Анна Рыцарева, Ольга Шувалова, Вероника Пляшкевич

Качество видео: SatRip

Продолжительность: 00:41:27 серия
Формат: AVI
Видео: DivX, 704x400, 1800 kbps
Аудио: русский, MP3 2.0, 128 kbps

Для выполнения особо важного задания фронтовик-разведчик капитан Михасев получает под свое командование спецразведгруппу из четырех бойцов, которыми оказываются… юные девушки. Вчерашним школьницам предстоит проникнуть на узел связи вражеской армии и парализовать его работу, обеспечив успех наступательной операции советских войск.

Код:

D:\Фильмы (роздача)\Ne.pokidaj\Ne.pokidaj.04.avi
   General
      Complete name : D:\Фильмы (роздача)\Ne.pokidaj\Ne.pokidaj.04.avi
      Format : AVI
      Format/Info : Audio Video Interleave
      File size : 577 MiB
      Duration : 41mn 27s
      Overall bit rate : 1 945 Kbps
   Video #0
      ID : 0
      Format : MPEG-4 Visual
      Format settings, BVOP : Yes
      Format settings, QPel : No
      Format settings, GMC : No warppoints
      Format settings, Matrix : Default (H.263)
      Codec ID : DX50
      Codec ID/Hint : DivX 5
      Duration : 41mn 27s
      Bit rate : 1 800 Kbps
      Width : 704 pixels
      Height : 400 pixels
      Display aspect ratio : 16:9
      Frame rate : 25.000 fps
      Color space : YUV
      Chroma subsampling : 4:2:0
      Bit depth : 8 bits
      Scan type : Progressive
      Compression mode : Lossy
      Bits/(Pixel*Frame) : 0.256
      Stream size : 534 MiB (93%)
      Writing library : Intel(R) MPEG-4 encoder based on Intel(R) IPP 6.1 build 137.20[6.1.137.763]
   Audio #1
      ID : 1
      Format : MPEG Audio
      Format version : Version 1
      Format profile : Layer 3
      Mode : Joint stereo
      Mode extension : MS Stereo
      Codec ID : 55
      Codec ID/Hint : MP3
      Duration : 41mn 27s
      Bit rate mode : Constant
      Bit rate : 128 Kbps
      Channel(s) : 2 channels
      Sampling rate : 48.0 KHz
      Compression mode : Lossy
      Stream size : 38.0 MiB (7%)
      Alignment : Aligned on interleaves
      Interleave, duration : 24 ms (0.60 video frame)
      Writing library : LAME3.98.2
picpicpicpicpicpicpicpicpicpicpicpicpicpicpicpicpicpicpic
Для увеличения картинки щелкните мышкой по превью

Этот торрент недоступен для скачивания без регистрации, однако доступен по публичной magnet-ссылке (источники с публичных трекеров). Перед использованием ссылки прочтите, пожалуйста Пользовательское соглашение, а также как можно дольше оставайтесь на раздаче! Для того, чтобы скачать сам торрент-файл (который видит больше источников), а также для того, чтобы поблагодарить релизера, вам необходимо зарегистрироваться. Если регистрироваться лень - вы можете также попробовать скачать релиз по нашим партнерским ссылкам ниже.

[underverse.su].t40003.torrent
Трекер: Зарегистрирован   [ 09.05.2014 13:10 ]  

Статус: проверено (by 90ytr90 at 12.05.2014 18:45)
Поблагодарили: 2 человека
Тип торрента: публичный - доступные источники с открытых трекеров: 
Размер: 2,31 GB (занимает 0,53 DVDR, для записи нужно 1 болванка DVDR/RW)
 
 
Похожие темы
Форум Тема Автор Торрент Отв. Посл. сооб.
Наше кино [DVDRip, Low-Res HDRip, и т.д.] Не покидай меня, Любовь (Роман Фокин) [2014 г., мелодрама, HDTVRip] 90ytr90
1 | 0

0 | 420

11

11.03.2014 07:49

xUSSR сериалы [BD / Remux / BDRip / WEB-DL / HDTV 1080/720р] Не покидай меня (1-4 серии из 4) (Александр Франскевич-Лайе) [2013 г., мелодрама, военный, история, WEB-DL 1080p] nemos
2 | 0

2 | 1142

13

12.05.2014 18:43



Последний раз редактировалось: nemos (09.05.2014 13:47), всего редактировалось 4 раз(а)

nemos Пол:Муж

09-Май-2014 13:17

С праздником Великой Победы!

Яндекс.Метрика powered by Sphinx


В Н И М А Н И Е
Сайт не распространяет и не хранит электронные версии произведений, а лишь бесплатно и без коммерческой выгоды (не требуя взамен платы,
SMS и т.д.) предоставляет доступ к создаваемому пользователями каталогу ссылок на торрент-файлы, которые содержат только списки хеш-сумм.
Убедительная просьба с жалобами обращаться напрямую к пользователю, разместившему торрент файл.

Вверх