Loading...
Error

Ключи от бездны [1-12 серии из 12] (Сергей Русаков) [2004 г., триллер, драма, детектив, история, DVDRip]

Статистика раздачи
Размер:  7,04 GB   |    Зарегистрирован:  2 года 6 месяцев   |    Скачан:  20 раз

Полного источника не было: 4 месяца 15 дней

Сидов:  0  |  0 KB/s  ]   Личеров:  0  |  0 KB/s  ]

* - сиды/пиры с внешних источников

   
 
Автор Сообщение

nemos Пол:Муж

09-Май-2014 12:27

Ключи от бездны

Год выпуска: 2004
Жанр: триллер, драма, детектив, история
Страна: Россия
Режиссер: Сергей Русаков
В ролях: Михаил Пореченков, Игнат Акрачков, Сергей Апрельский, Юозас Будрайтис, Сергей Виноградов, Екатерина Вуличенко, Александр Клюквин, Александр Кольцов, Алексей Кравченко, Александр Пашутин
Сюжет фильма:
Весна 1946 года. Подмосковный поселок Угольная Линия взбудоражен серией разбойных нападений и зверских убийств. Здесь бесчинствует банда Сеньки Кривого, состоящая из карателей, предателей и уголовников, хорошо вооруженных трофейным оружием. Глава местной милиции, лейтенант Сергей Матвеевич Высик, уже два месяца гоняется за неуловимой бандой, но все тщетно.Убеждаясь, что стандартные методы здесь не срабатывают, следователь решает обратиться за помощью к фронтовым друзьям: Казбеку, некогда первоклассному «медвежатнику», и Шалому, бывшему шулеру, которые служили под началом Сергея Матвеевича в конной разведке. За свои преступления они отработали сполна в штрафбате, а за командира Высика готовы пойти в огонь и в воду.Новое убийство, которое происходит в поселке, окончательно запутывает ситуацию: жертва оказывается ученым, имеющим отношение к засекреченному правительственному проекту. Его смерть вызывает панику вплоть до самых верхов. Навещая своего старого друга, местного врача, Высик узнает еще одну странную вещь. Незадолго до смерти ученый беседовал с доктором и подарил ему загадочную куклу, оставшуюся от его погибшей дочери.В ходе следствия выясняется, что секретный проект под кодовым названием «Операция »Голем«, в котором был задействован ученый, нацелен на создание »нового биологического человека», который будет обладать сверхъстественными способностями и беспрекословно подчиняться чужой воле. На этот проект Сталин возлагает даже больше надежд, чем на разработку ядерного оружия.Высик знакомится с «мозгом» проекта — академиком Буравниковым, доказавшим, что время биохимических процессов точно так же подчиняется законам теории относительности Эйнштейна, как и все остальное. Буравникова мучает совесть: он понимает, к каким кошмарным последствиям приведут его открытия.Высик и Буравников находят много общего и очень быстро становятся друзьями. Помощь академика, вхожего в высшие правительственные круги, оказывается для следователя чрезвычайно важной. Имея такой тыл, Высик устремляется к решению главных задач: к разгрому банды Кривого и к защите близких ему людей…


Качество видео: DVDRip

Продолжительность: 00:44:00 серия
Формат: AVI
Видео: XviD, 704x432, 1678 kbps
Аудио: русский, MP3 2.0, 224 kbps

Код:

D:\Фильмы (роздача)\Kljuchi.ot.bezdny.(12.Seriy.iz.12).2004.XviD.DVDRip.*другой трекер*\Kljuchi.ot.bezdny.(12.Seriya.iz.12).2004.XviD.DVDRip.*другой трекер*.avi
   General
      Complete name : D:\Фильмы (роздача)\Kljuchi.ot.bezdny.(12.Seriy.iz.12).2004.XviD.DVDRip.*другой трекер*\Kljuchi.ot.bezdny.(12.Seriya.iz.12).2004.XviD.DVDRip.*другой трекер*.avi
      Format : AVI
      Format/Info : Audio Video Interleave
      File size : 602 MiB
      Duration : 44mn 0s
      Overall bit rate : 1 912 Kbps
      Writing application : VirtualDubMod 1.5.10.2 (build 2540/release)
      Writing library : VirtualDubMod build 2540/release
   Video #0
      ID : 0
      Format : MPEG-4 Visual
      Format profile : Advanced Simple@L5
      Format settings, BVOP : 1
      Format settings, QPel : No
      Format settings, GMC : No warppoints
      Format settings, Matrix : Default (MPEG)
      Muxing mode : Packed bitstream
      Codec ID : XVID
      Codec ID/Hint : XviD
      Duration : 44mn 0s
      Bit rate : 1 678 Kbps
      Width : 704 pixels
      Height : 432 pixels
      Display aspect ratio : 1.630
      Frame rate : 25.000 fps
      Color space : YUV
      Chroma subsampling : 4:2:0
      Bit depth : 8 bits
      Scan type : Progressive
      Compression mode : Lossy
      Bits/(Pixel*Frame) : 0.221
      Stream size : 528 MiB (88%)
      Writing library : XviD 1.2.0.dev47 (UTC 2006-11-01)
   Audio #1
      ID : 1
      Format : MPEG Audio
      Format version : Version 1
      Format profile : Layer 3
      Mode : Joint stereo
      Mode extension : MS Stereo
      Codec ID : 55
      Codec ID/Hint : MP3
      Duration : 44mn 0s
      Bit rate mode : Constant
      Bit rate : 224 Kbps
      Channel(s) : 2 channels
      Sampling rate : 48.0 KHz
      Compression mode : Lossy
      Stream size : 70.5 MiB (12%)
      Alignment : Aligned on interleaves
      Interleave, duration : 40 ms (1.00 video frame)
      Interleave, preload duration : 504 ms
picpicpicpicpicpicpicpicpic
Для увеличения картинки щелкните мышкой по превью

Этот торрент недоступен для скачивания без регистрации, однако доступен по публичной magnet-ссылке (источники с публичных трекеров). Перед использованием ссылки прочтите, пожалуйста Пользовательское соглашение, а также как можно дольше оставайтесь на раздаче! Для того, чтобы скачать сам торрент-файл (который видит больше источников), а также для того, чтобы поблагодарить релизера, вам необходимо зарегистрироваться. Если регистрироваться лень - вы можете также попробовать скачать релиз по нашим партнерским ссылкам ниже.

[underverse.su].t40002.torrent
Трекер: Зарегистрирован   [ 09.05.2014 12:27 ]  

Статус: проверено (by Паукан at 03.06.2014 04:13)
Поблагодарили: 2 человека
Тип торрента: публичный - доступные источники с открытых трекеров: 
Размер: 7,04 GB (занимает 1,61 DVDR, для записи нужно 2 болванки DVDR/RW)
 
 


Последний раз редактировалось: nemos (06.11.2014 08:28), всего редактировалось 6 раз(а)

nemos Пол:Муж

09-Май-2014 12:30

Всех с праздником!!!

добавлено спустя 40 секунд:


Яндекс.Метрика powered by Sphinx


В Н И М А Н И Е
Сайт не распространяет и не хранит электронные версии произведений, а лишь бесплатно и без коммерческой выгоды (не требуя взамен платы,
SMS и т.д.) предоставляет доступ к создаваемому пользователями каталогу ссылок на торрент-файлы, которые содержат только списки хеш-сумм.
Убедительная просьба с жалобами обращаться напрямую к пользователю, разместившему торрент файл.

Вверх