Loading...
Error

Авантюристы (Константин Буслов) [2014 г., приключения, WEBRip]

Статистика раздачи
Размер:  1,37 GB   |    Зарегистрирован:  2 года 6 месяцев   |    Скачан:  106 раз

Полного источника не было: 11 часов

Сидов:  0  |  0 KB/s  ]   Личеров:  0  |  0 KB/s  ]

* - сиды/пиры с внешних источников

   
 
Автор Сообщение

nemos Пол:Муж

08-Май-2014 21:11

Авантюристы


Год выпуска: 2014
Жанр: приключения
Режиссер: Константин Буслов
В ролях: Константин Хабенский, Светлана Ходченкова, Денис Шведов
Сюжет фильма:
Катя и Андрей, успешный молодой банкир, прилетают на Мальту на отдых. В дайвинг-центре они случайно встречают Макса — профессионального дайвера, тайком занимающегося черной археологией, и, по совместительству, бывшего возлюбленного Кати.Во время одного из погружений Катя находит фрагмент спасательного жилета с номером немецкой подлодки времен Второй мировой. Девушка выясняет, что в 1942 году у мальтийского ордена рыцарей-госпитальеров была похищена коллекция уникальных древнеегипетских реликвий, которая должна была быть доставлена в Германию именно на подлодке. Однако ценный груз туда в итоге не прибыл.Рассудив, что подводная лодка с сокровищами, скорее всего, лежит на дне у берегов Мальты, троица начинает ее поиски, ввязываясь в череду опасных авантюр, в том числе и подводных. А отношения между искателями приключений все больше напоминают любовный треугольник…

  • Мировая премьера: 17 апреля 2014
  • Российская премьера: 10 апреля 2014, «Двадцатый Век Фокс СНГ», «A Company»

Качество видео: WEBRip

Продолжительность: 01:28:00
Формат: AVI
Видео: XviD, 720x304, 1880 kbps
Аудио: русский, AC3 2.0, 320 kbps

Код:

D:\Фильмы (роздача)\Avontur1st0.2014.O.WEBRip.1400Mb.avi
   General
      Complete name : D:\Фильмы (роздача)\Avontur1st0.2014.O.WEBRip.1400Mb.avi
      Format : AVI
      Format/Info : Audio Video Interleave
      File size : 1.37 GiB
      Duration : 1h 28mn
      Overall bit rate : 2 209 Kbps
      Writing application : VirtualDubMod 1.5.10.2 (build 2540/release)
      Writing library : VirtualDubMod build 2540/release
   Video #0
      ID : 0
      Format : MPEG-4 Visual
      Format profile : Advanced Simple@L5
      Format settings, BVOP : 2
      Format settings, QPel : No
      Format settings, GMC : No warppoints
      Format settings, Matrix : Custom
      Codec ID : XVID
      Codec ID/Hint : XviD
      Duration : 1h 28mn
      Bit rate : 1 880 Kbps
      Width : 720 pixels
      Height : 304 pixels
      Display aspect ratio : 2.35:1
      Frame rate : 25.000 fps
      Color space : YUV
      Chroma subsampling : 4:2:0
      Bit depth : 8 bits
      Scan type : Progressive
      Compression mode : Lossy
      Bits/(Pixel*Frame) : 0.344
      Stream size : 1.16 GiB (85%)
      Writing library : XviD 1.2.1 (UTC 2008-12-04)
   Audio #1
      ID : 1
      Format : AC-3
      Format/Info : Audio Coding 3
      Mode extension : CM (complete main)
      Format settings, Endianness : Big
      Codec ID : 2000
      Duration : 1h 28mn
      Bit rate mode : Constant
      Bit rate : 320 Kbps
      Channel(s) : 2 channels
      Channel positions : Front: L R
      Sampling rate : 48.0 KHz
      Bit depth : 16 bits
      Compression mode : Lossy
      Stream size : 203 MiB (14%)
      Alignment : Split accross interleaves
      Interleave, duration : 40 ms (1.00 video frame)
      Interleave, preload duration : 500 ms
picpicpicpicpicpicpic
Для увеличения картинки щелкните мышкой по превью

Этот торрент недоступен для скачивания без регистрации, однако доступен по публичной magnet-ссылке (источники с публичных трекеров). Перед использованием ссылки прочтите, пожалуйста Пользовательское соглашение, а также как можно дольше оставайтесь на раздаче! Для того, чтобы скачать сам торрент-файл (который видит больше источников), а также для того, чтобы поблагодарить релизера, вам необходимо зарегистрироваться. Если регистрироваться лень - вы можете также попробовать скачать релиз по нашим партнерским ссылкам ниже.

[underverse.su].t39986.torrent
Трекер: Зарегистрирован   [ 08.05.2014 21:11 ]  

Статус: проверено (by Паукан at 10.05.2014 12:54)
Поблагодарили: 5 человек
Тип торрента: публичный - доступные источники с открытых трекеров: 
Размер: 1,37 GB (занимает 0,31 DVDR, для записи нужно 1 болванка DVDR/RW)
 
 
Похожие темы
Форум Тема Автор Торрент Отв. Посл. сооб.
Наше кино [HDDVDRip / BDRip / WEB-DL / HDTV 1080/720р] Авантюристы (Константин Буслов) [2014 г., Приключения, Мелодрама, WEB-DL 720p] Ведьмочка
47 | 0

0 | 504

28

08.12.2014 07:06

МИЖГАН75 Пол:Муж

24-Авг-2014 15:34

можно посмотреть от нечего делать, что называется на один раз, но, опять же на любителя

Яндекс.Метрика powered by Sphinx


В Н И М А Н И Е
Сайт не распространяет и не хранит электронные версии произведений, а лишь бесплатно и без коммерческой выгоды (не требуя взамен платы,
SMS и т.д.) предоставляет доступ к создаваемому пользователями каталогу ссылок на торрент-файлы, которые содержат только списки хеш-сумм.
Убедительная просьба с жалобами обращаться напрямую к пользователю, разместившему торрент файл.

Вверх