Loading...
Error

Дачная поездка сержанта Цыбули (Николай Литус, Виталий Шунько) [1979 г., комедия, военный, DVDRip]

Статистика раздачи
Размер:  1,37 GB   |    Зарегистрирован:  2 года 7 месяцев   |    Скачан:  11 раз

Полного источника не было: 2 месяца 2 дня

Сидов:  0  |  0 KB/s  ]   Личеров:  0  |  0 KB/s  ]

* - сиды/пиры с внешних источников

   
 
Автор Сообщение

nemos Пол:Муж

07-Май-2014 21:15



Год выпуска: 1979
Жанр: комедия, военный
Страна: Россия
Режиссер: Николай Литус, Виталий Шунько
В ролях: Сергей Иванов, Владимир Алексеенко, Михаил Кокшенов, Надежда Смирнова, Владимир Чубарев, Михаил Львов, Нина Реус, Степан Олексенко, Сергей Свечников, Маргарита Криницына
  • Мировая премьера: 22 декабря 1980

Качество видео: DVDRip

Продолжительность: 01:12:00
Формат: AVI
Видео: DivX, 672x384, 2239 kbps
Аудио: русский, AC3 5.1, 448 kbps

Семпл: http://multi-up.com/972347
Разведчик, сержант Цыбуля, успешно выполнив очередное задание, снова отправляется в тыл к немцам. Теперь ему поручено доставить партизанам медикаменты, продовольствие и взрывчатку.Приняв костры врага за опознавательные сигналы партизан, Цыбуля приземляется в логове противника… Но, перехитрив своих преследователей и захватив в плен немецкого майора, он все-таки прорывается к партизанам на вражеском бронепоезде.

Код:

D:\Фильмы (роздача)\Dachnaja.poezdka.serzhanta.Cibuli.1980.DivX.DVDRip_BestVideo.avi
   General
      Complete name : D:\Фильмы (роздача)\Dachnaja.poezdka.serzhanta.Cibuli.1980.DivX.DVDRip_BestVideo.avi
      Format : AVI
      Format/Info : Audio Video Interleave
      File size : 1.37 GiB
      Duration : 1h 12mn
      Overall bit rate : 2 697 Kbps
      Writing application : FairUse Wizard - http://fairusewizard.com
      Writing library : The best and REALLY easy backup tool
   Video #0
      ID : 0
      Format : MPEG-4 Visual
      Format settings, BVOP : 1
      Format settings, QPel : No
      Format settings, GMC : No warppoints
      Format settings, Matrix : Default (H.263)
      Muxing mode : Packed bitstream
      Codec ID : DX50
      Codec ID/Hint : DivX 5
      Duration : 1h 12mn
      Bit rate : 2 239 Kbps
      Width : 672 pixels
      Height : 384 pixels
      Display aspect ratio : 16:9
      Frame rate : 25.000 fps
      Color space : YUV
      Chroma subsampling : 4:2:0
      Bit depth : 8 bits
      Scan type : Progressive
      Compression mode : Lossy
      Bits/(Pixel*Frame) : 0.347
      Stream size : 1.13 GiB (83%)
      Writing library : DivX 6.8.0 (UTC 2007-12-04)
   Audio #1
      ID : 1
      Format : AC-3
      Format/Info : Audio Coding 3
      Mode extension : CM (complete main)
      Format settings, Endianness : Big
      Codec ID : 2000
      Duration : 1h 12mn
      Bit rate mode : Constant
      Bit rate : 448 Kbps
      Channel(s) : 6 channels
      Channel positions : Front: L C R, Side: L R, LFE
      Sampling rate : 48.0 KHz
      Bit depth : 16 bits
      Compression mode : Lossy
      Stream size : 232 MiB (17%)
      Alignment : Split accross interleaves
      Interleave, duration : 40 ms (1.00 video frame)
      Interleave, preload duration : 500 ms
picpicpicpicpicpicpicpicpic
Для увеличения картинки щелкните мышкой по превью

Этот торрент недоступен для скачивания без регистрации, однако доступен по публичной magnet-ссылке (источники с публичных трекеров). Перед использованием ссылки прочтите, пожалуйста Пользовательское соглашение, а также как можно дольше оставайтесь на раздаче! Для того, чтобы скачать сам торрент-файл (который видит больше источников), а также для того, чтобы поблагодарить релизера, вам необходимо зарегистрироваться. Если регистрироваться лень - вы можете также попробовать скачать релиз по нашим партнерским ссылкам ниже.

[underverse.su].t39949.torrent
Трекер: Зарегистрирован   [ 07.05.2014 21:15 ]  

Статус: проверено (by 90ytr90 at 08.05.2014 14:41)
Поблагодарили: 1 человек
Тип торрента: публичный - доступные источники с открытых трекеров: 
Размер: 1,37 GB (занимает 0,31 DVDR, для записи нужно 1 болванка DVDR/RW)
 
 

Яндекс.Метрика powered by Sphinx


В Н И М А Н И Е
Сайт не распространяет и не хранит электронные версии произведений, а лишь бесплатно и без коммерческой выгоды (не требуя взамен платы,
SMS и т.д.) предоставляет доступ к создаваемому пользователями каталогу ссылок на торрент-файлы, которые содержат только списки хеш-сумм.
Убедительная просьба с жалобами обращаться напрямую к пользователю, разместившему торрент файл.

Вверх