Loading...
Error

Холодное сердце / Frozen (Крис Бак, Дженнифер Ли) [2013 г., мультфильм, мюзикл, фэнтези, комедия, мелодрама, приключения, семейный, BDRip] Dub + Original + Sub(Rus,Eng) HQ Underverse

Статистика раздачи
Размер:  2,19 GB   |    Зарегистрирован:  2 года 6 месяцев   |    Скачан:  12 раз
Сидов:  1  |  0 KB/s  ]   Личеров:  0  |  0 KB/s  ]

* - сиды/пиры с внешних источников

   
 
Автор Сообщение

HQ Underverse 

07-Май-2014 08:49

Холодное сердце / Frozen


Год выпуска: 2013
Жанр: мультфильм, мюзикл, фэнтези, комедия, мелодрама, приключения, семейный
Страна: США
Режиссер: Крис Бак, Дженнифер Ли
Роли озвучивали: Кристен Белл, Идина Мензел, Джонатан Грофф, Джош Гад, Сантино Фонтана, Алан Тьюдик, Киаран Хайндс, Крис Уильямс, Стивен Дж. Андерсон, Майа Уилсон
Сюжет фильма:
Когда древнее предсказание сбывается и королевство погружается в объятия вечной зимы, трое бесстрашных героев — принцесса Анна, отважный Кристофф и его верный олень Свен — отправляются в горы, чтобы найти сестру Анны, Эльзу, которая может снять со страны леденящее заклятие. По пути их ждет множество увлекательных сюрпризов и захватывающих приключений: встреча с мистическими троллями, знакомство с очаровательным снеговиком по имени Олаф, горные вершины покруче Эвереста и магия в каждой снежинке. Анне и Кристоффу предстоит сплотиться и противостоять могучей стихии, чтобы спасти королевство и тех, кто им дорог…
|
Качество видео: BDRip

Продолжительность: 01:42:13
Формат: avi
Видео: XviD, 720x320, 2146 kbps
Аудио #1: русский, дублированный [лицензия], AC3 2.0, 448 kbps
Аудио #2: английский, оригинал, AC3 5.1, 448 kbps
Аудио #3: украинский, дублированный, AC3 5.1, 384 kbps (отдельным файлом: здесь)
Субтитры #1: внешние, SRT, русский
Субтитры #2: внешние, SRT, английский

Код:

General
Complete name                    : Z:\windoza-share\Холодное сердце\Frozen.2013.BDRip.XviD.AC3.Rus.D.Eng.O.HQ.Underverse.avi
Format                           : AVI
Format/Info                      : Audio Video Interleave
Format profile                   : OpenDML
File size                        : 2.19 GiB
Duration                         : 1h 42mn
Overall bit rate                 : 3 061 Kbps
Writing application              : VirtualDubMod 1.5.10.2 (build 2542/release)
Writing library                  : VirtualDubMod build 2542/release

Video
ID                               : 0
Format                           : MPEG-4 Visual
Format profile                   : Streaming Video@L1
Format settings, BVOP            : Yes
Format settings, QPel            : No
Format settings, GMC             : No warppoints
Format settings, Matrix          : Custom
Muxing mode                      : Packed bitstream
Codec ID                         : XVID
Codec ID/Hint                    : XviD
Duration                         : 1h 42mn
Bit rate                         : 2 147 Kbps
Width                            : 720 pixels
Height                           : 320 pixels
Display aspect ratio             : 2.25
Frame rate                       : 23.976 fps
Resolution                       : 24 bits
Colorimetry                      : 4:2:0
Scan type                        : Progressive
Bits/(Pixel*Frame)               : 0.389
Stream size                      : 1.53 GiB (70%)
Writing library                  : XviD 64

Audio #1
ID                               : 1
Format                           : AC-3
Format/Info                      : Audio Coding 3
Codec ID                         : 2000
Duration                         : 1h 42mn
Bit rate mode                    : Constant
Bit rate                         : 448 Kbps
Channel(s)                       : 2 channels
Channel positions                : L R
Sampling rate                    : 48.0 KHz
Stream size                      : 328 MiB (15%)
Alignment                        : Split accross interleaves
Interleave, duration             : 42 ms (1.00 video frame)
Interleave, preload duration     : 500 ms

Audio #2
ID                               : 2
Format                           : AC-3
Format/Info                      : Audio Coding 3
Codec ID                         : 2000
Duration                         : 1h 42mn
Bit rate mode                    : Constant
Bit rate                         : 448 Kbps
Channel(s)                       : 6 channels
Channel positions                : Front: L C R, Surround: L R, LFE
Sampling rate                    : 48.0 KHz
Stream size                      : 328 MiB (15%)
Alignment                        : Split accross interleaves
Interleave, duration             : 42 ms (1.00 video frame)
Interleave, preload duration     : 500 ms

General
Complete name                    : Z:\windoza-share\Холодное сердце\Frozen.2013.BDRip.XviD.AC3.Rus.D.Eng.O.HQ.Underverse.UKR.ac3
Format                           : AC-3
Format/Info                      : Audio Coding 3
File size                        : 281 MiB
Duration                         : 1h 42mn
Overall bit rate                 : 384 Kbps

Audio
Format                           : AC-3
Format/Info                      : Audio Coding 3
Duration                         : 1h 42mn
Bit rate mode                    : Constant
Bit rate                         : 384 Kbps
Channel(s)                       : 6 channels
Channel positions                : Front: L C R, Surround: L R, LFE
Sampling rate                    : 48.0 KHz
Stream size                      : 281 MiB (100%)

Релиз группы:

picpicpic
Для увеличения картинки щелкните мышкой по превью

Этот торрент недоступен для скачивания без регистрации, однако доступен по публичной magnet-ссылке (источники с публичных трекеров). Перед использованием ссылки прочтите, пожалуйста Пользовательское соглашение, а также как можно дольше оставайтесь на раздаче! Для того, чтобы скачать сам торрент-файл (который видит больше источников), а также для того, чтобы поблагодарить релизера, вам необходимо зарегистрироваться. Если регистрироваться лень - вы можете также попробовать скачать релиз по нашим партнерским ссылкам ниже.

[underverse.su].t39916.torrent
Трекер: Зарегистрирован   [ 07.05.2014 08:49 ]  

Статус: проверено (by HQ Underverse at 07.05.2014 08:49)
Поблагодарили: 4 человека
Тип торрента: публичный - доступные источники с открытых трекеров: 
Размер: 2,19 GB (занимает 1/2 DVDR, для записи нужно 1 болванка DVDR/RW)
 
 
Похожие темы
Форум Тема Автор Торрент Отв. Посл. сооб.
Зарубежные мультфильмы Холодное сердце / Frozen (Крис Бак / Chris Buck, Дженнифер Ли / Jennifer Lee) [2013 г., мультфильм, фэнтези, комедия, приключения, семейный, BDRip-AVC] Dub + AVO (Живов) + Original (Eng) + Sub (Rus,... 90ytr90
2 | 0

0 | 1552

13

27.03.2014 09:05

Зарубежные мультфильмы Холодное сердце / Frozen (Крис Бак / Chris Buck, Дженнифер Ли / Jennifer Lee) [2013 г., мультфильм, фэнтези, комедия, приключения, семейный, BDRip-AVC] Dub + Sub (Rus, Eng) 90ytr90
26 | 0

0 | 1964

71

27.03.2014 09:20

Зарубежные мультфильмы Холодное сердце / Frozen (Крис Бак / Chris Buck, Дженнифер Ли / Jennifer Lee) [2013 г., мультфильм, фэнтези, комедия, приключения, семейный, BDRip] Dub + Original (Eng) + Sub (Rus, Eng) 90ytr90
3 | 0

0 | 1443

33

28.03.2014 18:04

Зарубежные мультфильмы Холодное сердце / Frozen (Крис Бак / Chris Buck, Дженнифер Ли / Jennifer Lee) [2013 г., мультфильм, фэнтези, комедия, приключения, семейный, HDRip] Dub 90ytr90
383 | 2

1 | 1986

160

05.09.2014 10:08

Мультфильмы [HDDVDRip / BDRip / WEB-DL / HDTV 1080/720р] Холодное сердце / Frozen (Крис Бак / Chris Buck, Дженнифер Ли / Jennifer Lee) [2013 г., мультфильм, фэнтези, комедия, приключения, семейный, BDRip 720p] Dub + Original (Eng) + Sub (Rus, Eng) 90ytr90
1 | 0

0 | 1948

46

27.03.2014 09:13

Мультфильмы [HDDVDRip / BDRip / WEB-DL / HDTV 1080/720р] Холодное сердце / Frozen (Крис Бак / Chris Buck, Дженнифер Ли / Jennifer Lee) [2013 г., мультфильм, фэнтези, комедия, приключения, семейный, BDRip 1080p] Dub + Original (Eng) + Sub (Rus, Eng) 90ytr90
42 | 0

0 | 895

55

24.04.2014 17:00


Яндекс.Метрика powered by Sphinx


В Н И М А Н И Е
Сайт не распространяет и не хранит электронные версии произведений, а лишь бесплатно и без коммерческой выгоды (не требуя взамен платы,
SMS и т.д.) предоставляет доступ к создаваемому пользователями каталогу ссылок на торрент-файлы, которые содержат только списки хеш-сумм.
Убедительная просьба с жалобами обращаться напрямую к пользователю, разместившему торрент файл.

Вверх