Loading...
Error

Кремлевские Курсанты / Серии: 96-160 из 160 (Сергей Арланов, Валентин Козловский, Павел Игнатов) [2006 - 2007, Драмеди, SATRip]

Статистика раздачи
Размер:  28,25 GB   |    Зарегистрирован:  2 года 7 месяцев   |    Скачан:  0 раз

Полного источника не было: 1 год 8 месяцев

Сидов:  0  |  0 KB/s  ]   Личеров:  0  |  0 KB/s  ]

* - сиды/пиры с внешних источников

   
 
Автор Сообщение

uzi2009 Пол:Муж

06-Май-2014 19:05

Кремлевские Курсанты

Год выпуска: 2009-2010
Производство: Костафильм по заказу СТС
Жанр: Драмеди
Продолжительность: 00:45 мин. серия
Субтитры: Отсутствуют

Режиссёр: Сергей Арланов, Валентин Козловский, Павел Игнатов

В ролях: Александр Головин, Борис Корчевников, Иван Добронравов, Аристарх Венес, Артур Сопельник, Павел Бессонов, Кирилл Емельянов, Александр Пороховщиков, Елена Захарова, Валерий Баринов, Вадим Андреев, Сергей Жолобов, Владимир Стеклов, Георгий Мартиросян, Ирина Цывина, Виталий Абдулов, Светлана Чернова, Ольга Лукьяненко, Вероника Изотова, Сергей Плотников (II), Фёдор Добронравов, Татьяна Пискарёва, Анна Малышева (II), Тарас Тюрин, Сергей Рыченков, Алексей Соболев, Игорь Юртаев, Павел Архипов, Вячеслав Шереметьев, Михаил Курбатов (II), Марина Федотенко, Никита Кукушкин, Светлана Варецкая, Александр Романов, Владимир Балдов, Владимир Лаптев, Дмитрий Горевой, Ольга Хохлова, Галина Данилова, Валерий Шалавин, Сергей Королев (II), Людмила Лепехина, Марина Киселева, Софья Крылова, Анастасия Базарова, Борис Лифанов (II), Марина Фомина, Александр Базоев, Владимир Киреев, Татьяна Покровская, Александр Любащенко, Сергей Стёпин, Георгий Рябухин, Андрей Журавлев, Александр Царьков, Иван Иванов (II), Анна Иванова (Annkvin), Ирина Иванова (IV), Елена Артемьева, Валентин Кулагин, Дмитрий Демин, Сергей Коноплёв, Людмила Алексеева, Дмитрий Ячевский, Дина Серебрякова, Лидия Андрианова, Юлия Бурмистрова, Алина Колкер, Михаил Гусев, Станислав Костецкий

Описание: История о мальчишках, добровольно отказавшихся от привычной юношеской вольности и выбравших жизнь по уставу. Задача сериала – проследить весь путь становления образцового военнослужащего, показать повседневную жизнь в армии, а именно самого молодого поколения – мальчишек, поступивших в Суворовское училище.
Главные герои сериала – трое подростков, кадеты Суворовского училища. Детдомовец, сын мэра города и сын потомственного военного, на себе испытают нелегкие будни курсантов.

Доп. информация: За исходник, спасибо CLIPMAN за DVB
Релиз от:
Размер: 10 серий на DVD5



Кремлевские курсанты / 1-80 серии.

Кремлевские курсанты / 81 - 95 серии.

Качество: SATRip
Формат: AVI
Видео кодек: XviD
Аудио кодек: MP3
Видео: 624x352 (1.77:1) 25 fps XviD build 50 1164 kbps avg 0.21 bit/pixel
Аудио: 48 kHz MPEG Layer 3 2 ch 128.00 kbps avg

Семпл MI
General
Complete name : D:\Кремлевские Курсанты SATRip_by_SVAT\Kremlevskie kyrsanty.096_SATRip_by_SVAT.avi
Format : AVI
Format/Info : Audio Video Interleave
File size : 443 MiB
Duration : 47mn 30s
Overall bit rate : 1 303 Kbps
Writing application : VirtualDubMod 1.5.10.3 | www.virtualdub-fr.org || (build 2550/release)
Writing library : VirtualDubMod build 2550/release

Video
ID : 0
Format : MPEG-4 Visual
Format profile : Advanced Simple@L5
Format settings, BVOP : 1
Format settings, QPel : No
Format settings, GMC : No warppoints
Format settings, Matrix : Default (H.263)
Codec ID : XVID
Codec ID/Hint : XviD
Duration : 47mn 30s
Bit rate : 1 165 Kbps
Width : 624 pixels
Height : 352 pixels
Display aspect ratio : 16:9
Frame rate : 25.000 fps
Color space : YUV
Chroma subsampling : 4:2:0
Bit depth : 8 bits
Scan type : Progressive
Compression mode : Lossy
Bits/(Pixel*Frame) : 0.212
Stream size : 396 MiB (89%)
Writing library : XviD 1.2.1 (UTC 2008-12-04)

Audio
ID : 1
Format : MPEG Audio
Format version : Version 1
Format profile : Layer 3
Codec ID : 55
Codec ID/Hint : MP3
Duration : 47mn 30s
Bit rate mode : Constant
Bit rate : 128 Kbps
Channel(s) : 2 channels
Sampling rate : 48.0 KHz
Compression mode : Lossy
Stream size : 43.5 MiB (10%)
Alignment : Aligned on interleaves
Interleave, duration : 40 ms (1.00 video frame)
Interleave, preload duration : 504 ms
Writing library : LAME3.98r
Encoding settings : -m s -V 4 -q 2 -lowpass 17 -b 128
Скриншоты
pic pic pic pic

Этот торрент недоступен для скачивания без регистрации, однако доступен по публичной magnet-ссылке (источники с публичных трекеров). Перед использованием ссылки прочтите, пожалуйста Пользовательское соглашение, а также как можно дольше оставайтесь на раздаче! Для того, чтобы скачать сам торрент-файл (который видит больше источников), а также для того, чтобы поблагодарить релизера, вам необходимо зарегистрироваться. Если регистрироваться лень - вы можете также попробовать скачать релиз по нашим партнерским ссылкам ниже.

[underverse.su].t39900.torrent
Трекер: Зарегистрирован   [ 06.05.2014 19:05 ]  

Статус: проверено (by Паукан at 07.05.2014 06:30)
Поблагодарили: пока никто не поблагодарил...
Тип торрента: публичный - доступные источники с открытых трекеров: 
Размер: 28,25 GB (занимает 6,45 DVDR, для записи нужно 7 болванок DVDR/RW)
 
 
Похожие темы
Форум Тема Автор Торрент Отв. Посл. сооб.
xUSSR сериалы Кремлевские курсанты / 1-80 серии (Валентин Козловский) [2009 г., Kомедия, мелодрама, SATRip] uzi2009
9 | 8

0 | 596

1

06.05.2014 18:47

xUSSR сериалы Кремлевские курсанты / 81 - 95 серия (Валентин Козловский) [2009 г., Kомедия, мелодрама, SATRip] uzi2009
11 | 2

0 | 404

1

06.05.2014 18:58

Архив Кремлевские курсанты (96-160 серия) (Валентин Козловский, Андрей Гребенкин, Дмитрий Чирков) [2010 г., Сериал, SATRip] BartSimpson
0 | 0

20 | 3260

0

18.01.2012 08:21


Яндекс.Метрика powered by Sphinx


В Н И М А Н И Е
Сайт не распространяет и не хранит электронные версии произведений, а лишь бесплатно и без коммерческой выгоды (не требуя взамен платы,
SMS и т.д.) предоставляет доступ к создаваемому пользователями каталогу ссылок на торрент-файлы, которые содержат только списки хеш-сумм.
Убедительная просьба с жалобами обращаться напрямую к пользователю, разместившему торрент файл.

Вверх