Loading...
Error

Великолепный век / Muhtesem Yuzyil / Сезон 4 / Серии: 104-139 (Мерт Байкал, Ягиз Алп Акайдын) [2013-2014, Турция, Драма, мелодрама, военный, WEB-DLRip] VO (turok1990)

Статистика раздачи
Размер:  51,22 GB   |    Зарегистрирован:  2 года 2 месяца   |    Скачан:  2 раза

Полного источника не было: 2 месяца 14 дней

Сидов:  0  |  0 KB/s  ]   Личеров:  0  |  0 KB/s  ]

* - сиды/пиры с внешних источников

   
 
Автор Сообщение

uzi2009 Пол:Муж

06-Май-2014 12:24

Великолепный век / Muhteşem Yüzyıl

Год выпуска: 2013-2014
Страна: Турция
Производство: TIMS Productions
Жанр: Драма, мелодрама, военный
Серии: 104-139
Продолжительность: ~01:50:00
Перевод: любительский одноголосый закадровый (turok1990)
Субтитры: отсутствуют
Режиссёр: Мерт Байкал, Ягиз Алп Акайдын
В ролях: Халит Эргенч, Вахиде Перчин, Нур Айсан, Мехмет Гюнсюр, Беррак Тюзюнатач, Арас Булут Ийнемли, Озан Гювен, Пелин Карахан, Мерве Болугур, Энгин Озтюрк, Тольга Сарыташ, Сарп Аккая, Мельтем Джумбул, Серкан Алтунорак, Тунджель Куртиз, Небахат Чехре, Бурак Озчивит, Окан Ялабык, Филиз Ахмет, Дениз Чакыр, Сельма Эргеч, Селим Байрактар, Гюрбей Илери...
Описание: Сериал повествует о правлении султана Сулеймана Великолепного и его страстной любви к украинской красавице Роксалане. Согласно канонам исламской веры, султан мог иметь четырех законных жен и столько наложниц, сколько сможет содержать. При этом, дети первой жены становились преемниками престола. Роксолана еще девочкой была захвачена в плен и переправлена в Стамбул, где визирь Ибрагим-паша подарил ее султану. Путем интриг, подкупа и умелого обольщения украинская красавица стала женой султана. После принятия ислама она получила имя Хюррем. Сулейман возвел Роксолану в ранг главной жены, и называл ее не иначе как «милой сердцу». Роксолана была не только искусной любовницей, но и умной, интересной собеседницей, хорошо разбирающейся в искусстве и государственных делах. Чтобы реализовать свои амбиции в султанате, Хюррем устраняла всех, кто мог ей в этом помешать. В основу сценария легло несколько исторических романов и средневековых документов.
Доп. информация: Релиз от irqawert
Качество: WEB-DLRip
Формат: AVI
Видео кодек: XviD
Аудио кодек: MP3
Видео: MPEG-4, 720x400p, 25 fps, ~1500 Kbps
Аудио: Русский, MP3, 44.1 KHz, 2 ch, 192 kbps
Format : AVI
Format/Info : Audio Video Interleave
File size : 1.37 GiB
Duration : 2h 0mn
Overall bit rate : 1 637 Kbps
Writing application : VirtualDubMod 1.5.10.3
Writing library : VirtualDub build 32842/release

Video
ID : 0
Format : MPEG-4 Visual
Format profile : Advanced Simple@L5
Format settings, BVOP : 2
Format settings, QPel : No
Format settings, GMC : No warppoints
Format settings, Matrix : Default (H.263)
Codec ID : XVID
Codec ID/Hint : XviD
Duration : 2h 0mn
Bit rate : 1 436 Kbps
Width : 720 pixels
Height : 400 pixels
Display aspect ratio : 16:9
Frame rate : 25.000 fps
Color space : YUV
Chroma subsampling : 4:2:0
Bit depth : 8 bits
Scan type : Progressive
Compression mode : Lossy
Bits/(Pixel*Frame) : 0.199
Stream size : 1.20 GiB (88%)
Writing library : XviD 1.2.1

Audio
ID : 1
Format : MPEG Audio
Format version : Version 1
Format profile : Layer 3
Codec ID : 55
Codec ID/Hint : MP3
Duration : 2h 0mn
Bit rate mode : Constant
Bit rate : 192 Kbps
Channel(s) : 2 channels
Sampling rate : 44.1 KHz
Compression mode : Lossy
Stream size : 165 MiB (12%)
Alignment : Split accross interleaves
Interleave, duration : 40 ms (1.00 video frame)
Interleave, preload duration : 500 ms
Writing library : L3.99r
Encoding settings : -m s -V 4 -q 2 -lowpass 18.6 -b 192
pic pic pic pic


В раздаче 1 - 36 серии 4 сезона (по турецкой нумерации 104 - 139)




Добавлена 137 серия.




Добавлена 138 и 139 - заключительная серия 4-го сезона серия.

Этот торрент недоступен для скачивания без регистрации, однако доступен по публичной magnet-ссылке (источники с публичных трекеров). Перед использованием ссылки прочтите, пожалуйста Пользовательское соглашение, а также как можно дольше оставайтесь на раздаче! Для того, чтобы скачать сам торрент-файл (который видит больше источников), а также для того, чтобы поблагодарить релизера, вам необходимо зарегистрироваться. Если регистрироваться лень - вы можете также попробовать скачать релиз по нашим партнерским ссылкам ниже.

[underverse.su].t39880.torrent
Трекер: Зарегистрирован   [ 18.09.2014 18:12 ]  

Статус: проверено (by Паукан at 01.10.2014 13:25)
Поблагодарили: 1 человек
Тип торрента: публичный - доступные источники с открытых трекеров: 
Размер: 51,22 GB (занимает 11,7 DVDR, для записи нужно 12 болванок DVDR/RW)
 
 
Похожие темы
Форум Тема Автор Торрент Отв. Посл. сооб.
T Зарубежное кино [DVDRip, Low-Res HDRip, и т.д.] Великолепная семерка / The Magnificent Seven (Антуан Фукуа / Antoine Fuqua) [2016 г., боевик, вестерн, HDRip] Dub (звук с TS) 90ytr90
580 | 59

0 | 378

17

06.12.2016 17:29

T Зарубежное кино [DVDRip, Low-Res HDRip, и т.д.] Великолепная семерка / The Magnificent Seven (Антуан Фукуа) [2016 г., боевик, вестерн, HDRip] Dub (звук с CAMRip) makkol
1328 | 196

0 | 326

10

06.12.2016 14:50

T Зарубежное кино [DVDRip, Low-Res HDRip, и т.д.] Великолепная Гилли Хопкинс / The Great Gilly Hopkins (Стивен Херек) [2016 г., комедия, драма, семейный, HDRip] MVO (GreenРай Studio) makkol
276 | 15

0 | 431

6

01.12.2016 10:31

Зарубежное кино [DVDRip, Low-Res HDRip, и т.д.] Великолепная афера / Matchstick Men (Ридли Скотт / Ridley Scott) [2003 г., триллер, комедия, драма, криминал, HDRip] Dub Паукан
2 | 0

0 | 867

41

05.07.2013 13:56

Зарубежные сериалы Великолепный век / Muhtesem Yuzyil / Сезон 4 / Серии: 104-139 (Мерт Байкал, Ягиз Алп Акайдын) [2013-2014, Турция, Драма, мелодрама, военный, HDTVRip Full HD 1080p] VO (turok1990) uzi2009
2 | 1

0 | 1682

0

06.05.2014 07:39

Зарубежные сериалы Великолепный век / Muhtesem Yuzyil / Сезон 4 / Серии: 118-139 (Мерт Байкал, Ягиз Алп Акайдын) [2014, Турция, Драма, мелодрама, военный, WEB-DL 720p] VO (turok1990) uzi2009
4 | 4

3 | 2578

2

26.05.2014 18:52

T Зарубежное кино [HDDVDRip / BDRip / WEB-DL / HDTV 1080/720р] Великолепная семерка / The Magnificent Seven (Антуан Фукуа / Antoine Fuqua) [2016 г., боевик, вестерн, BDRip 1080p] Dub (звук с TS) 90ytr90
62 | 17

0 | 369

4

06.12.2016 17:38

T Зарубежное кино [HDDVDRip / BDRip / WEB-DL / HDTV 1080/720р] Великолепная семерка / The Magnificent Seven (Антуан Фукуа / Antoine Fuqua) [2016 г., боевик, вестерн, BDRip 720p] Dub (звук с TS) 90ytr90
55 | 11

0 | 344

3

06.12.2016 17:34

T Зарубежное кино [HDDVDRip / BDRip / WEB-DL / HDTV 1080/720р] Великолепная Гилли Хопкинс / The Great Gilly Hopkins (Стивен Херек) [2016 г., комедия, драма, семейный, BDRip 1080p] MVO (GreenРай Studio) makkol
65 | 3

0 | 418

2

01.12.2016 10:44

T Зарубежное кино [HDDVDRip / BDRip / WEB-DL / HDTV 1080/720р] Великолепная Гилли Хопкинс / The Great Gilly Hopkins (Стивен Херек) [2016 г., комедия, драма, семейный, BDRip 720p] MVO (GreenРай Studio) makkol
72 | 7

0 | 379

1

01.12.2016 10:38



Последний раз редактировалось: uzi2009 (18.09.2014 18:12), всего редактировалось 7 раз(а)

uzi2009 Пол:Муж

20-Май-2014 11:02

Добавлена 135 серия

uzi2009 Пол:Муж

26-Май-2014 18:57

Добавлена 136 серия.

Яндекс.Метрика powered by Sphinx


В Н И М А Н И Е
Сайт не распространяет и не хранит электронные версии произведений, а лишь бесплатно и без коммерческой выгоды (не требуя взамен платы,
SMS и т.д.) предоставляет доступ к создаваемому пользователями каталогу ссылок на торрент-файлы, которые содержат только списки хеш-сумм.
Убедительная просьба с жалобами обращаться напрямую к пользователю, разместившему торрент файл.

Вверх