Loading...
Error

Великолепный век / Muhtesem Yuzyil / Сезон 4 / Серии: 118-139 (Мерт Байкал, Ягиз Алп Акайдын) [2014, Турция, Драма, мелодрама, военный, WEB-DL 720p] VO (turok1990)

Статистика раздачи
Размер:  36,95 GB   |    Зарегистрирован:  2 года 2 месяца   |    Скачан:  2 раза

Полного источника не было: 1 год 10 месяцев

Сидов:  0  |  0 KB/s  ]   Личеров:  0  |  0 KB/s  ]

* - сиды/пиры с внешних источников

   
 
Автор Сообщение

uzi2009 Пол:Муж

06-Май-2014 12:17

Великолепный век / Muhteşem Yüzyıl

Год выпуска: 2014
Страна: Турция
Производство: TIMS Productions
Жанр: Драма, мелодрама, военный
Серии: 118-139
Продолжительность: ~02:00:00
Перевод: любительский одноголосый закадровый (turok1990)
Субтитры: отсутствуют

Режиссёр: Мерт Байкал, Ягиз Алп Акайдын

В ролях: Халит Эргенч, Вахиде Перчин, Нур Айсан, Мехмет Гюнсюр, Беррак Тюзюнатач, Арас Булут Ийнемли, Озан Гювен, Пелин Карахан, Мерве Болугур, Энгин Озтюрк, Тольга Сарыташ, Сарп Аккая, Мельтем Джумбул, Серкан Алтунорак, Тунджель Куртиз, Небахат Чехре, Бурак Озчивит, Окан Ялабык, Филиз Ахмет, Дениз Чакыр, Сельма Эргеч, Селим Байрактар, Гюрбей Илери...

Описание: Сериал повествует о правлении султана Сулеймана Великолепного и его страстной любви к украинской красавице Роксалане. Согласно канонам исламской веры, султан мог иметь четырех законных жен и столько наложниц, сколько сможет содержать. При этом, дети первой жены становились преемниками престола. Роксолана еще девочкой была захвачена в плен и переправлена в Стамбул, где визирь Ибрагим-паша подарил ее султану. Путем интриг, подкупа и умелого обольщения украинская красавица стала женой султана. После принятия ислама она получила имя Хюррем. Сулейман возвел Роксолану в ранг главной жены, и называл ее не иначе как «милой сердцу». Роксолана была не только искусной любовницей, но и умной, интересной собеседницей, хорошо разбирающейся в искусстве и государственных делах. Чтобы реализовать свои амбиции в султанате, Хюррем устраняла всех, кто мог ей в этом помешать. В основу сценария легло несколько исторических романов и средневековых документов.

Качество: WEB-DL
Формат: MP4
Видео кодек: H.264
Аудио кодек: AAC
Видео: MPEG-4 AVC, 1280x720p, 25 fps, ~1400 Kbps
Аудио 1: Русский, AAC, 44.1 KHz, 2 ch, 192 kbps
Аудио 2: Турецкий, AAC, 44.1 KHz, 2 ch, 192 kbps
Format : MPEG-4
Format profile : Base Media
Codec ID : isom
File size : 1.33 GiB
Duration : 2h 0mn
Overall bit rate mode : Variable
Overall bit rate : 1 588 Kbps

Video
ID : 1
Format : AVC
Format/Info : Advanced Video Codec
Format profile : High@L3.1
Format settings, CABAC : Yes
Format settings, ReFrames : 1 frame
Format settings, GOP : M=1, N=60
Codec ID : avc1
Codec ID/Info : Advanced Video Coding
Duration : 2h 0mn
Source duration : 2h 0mn
Bit rate : 1 203 Kbps
Maximum bit rate : 4 725 Kbps
Width : 1 280 pixels
Height : 720 pixels
Display aspect ratio : 16:9
Frame rate mode : Constant
Frame rate : 25.000 fps
Color space : YUV
Chroma subsampling : 4:2:0
Bit depth : 8 bits
Scan type : Progressive
Bits/(Pixel*Frame) : 0.052
Stream size : 1.01 GiB (76%)
Source stream size : 1.01 GiB (76%)
Language : English

Audio #1
ID : 2
Format : AAC
Format/Info : Advanced Audio Codec
Format profile : LC
Codec ID : 40
Duration : 2h 0mn
Bit rate mode : Variable
Bit rate : 192 Kbps
Maximum bit rate : 201 Kbps
Channel(s) : 2 channels
Channel positions : Front: L R
Sampling rate : 44.1 KHz
Compression mode : Lossy
Stream size : 165 MiB (12%)
Language : Russian

Audio #2
ID : 3
Format : AAC
Format/Info : Advanced Audio Codec
Format profile : LC
Codec ID : 40
Duration : 2h 0mn
Bit rate mode : Variable
Bit rate : 192 Kbps
Maximum bit rate : 201 Kbps
Channel(s) : 2 channels
Channel positions : Front: L R
Sampling rate : 44.1 KHz
Compression mode : Lossy
Stream size : 165 MiB (12%)
Language : Turkish
pic pic pic pic pic
Добавлена 137 серия.


Добавлена 138 и 139 - заключительная серия 4-го сезона.

Этот торрент недоступен для скачивания без регистрации, однако доступен по публичной magnet-ссылке (источники с публичных трекеров). Перед использованием ссылки прочтите, пожалуйста Пользовательское соглашение, а также как можно дольше оставайтесь на раздаче! Для того, чтобы скачать сам торрент-файл (который видит больше источников), а также для того, чтобы поблагодарить релизера, вам необходимо зарегистрироваться. Если регистрироваться лень - вы можете также попробовать скачать релиз по нашим партнерским ссылкам ниже.

[underverse.su].t39879.torrent
Трекер: Зарегистрирован   [ 18.09.2014 18:09 ]  

Статус: проверено (by Паукан at 01.10.2014 13:25)
Поблагодарили: пока никто не поблагодарил...
Тип торрента: публичный - доступные источники с открытых трекеров: 
Размер: 36,95 GB (занимает 8,44 DVDR, для записи нужно 9 болванок DVDR/RW)
 
 
Похожие темы
Форум Тема Автор Торрент Отв. Посл. сооб.
T Зарубежное кино [DVDRip, Low-Res HDRip, и т.д.] Великолепная Гилли Хопкинс / The Great Gilly Hopkins (Стивен Херек) [2016 г., комедия, драма, семейный, HDRip] MVO (GreenРай Studio) makkol
263 | 31

0 | 311

4

01.12.2016 10:31

Зарубежное кино [DVDRip, Low-Res HDRip, и т.д.] Великолепная афера / Matchstick Men (Ридли Скотт / Ridley Scott) [2003 г., триллер, комедия, драма, криминал, HDRip] Dub Паукан
4 | 0

0 | 862

41

05.07.2013 13:56

Зарубежные сериалы Великолепный век / Muhtesem Yuzyil / Сезон 4 / Серии: 104-139 (Мерт Байкал, Ягиз Алп Акайдын) [2013-2014, Турция, Драма, мелодрама, военный, HDTVRip Full HD 1080p] VO (turok1990) uzi2009
2 | 4

0 | 1675

0

06.05.2014 07:39

Зарубежные сериалы Великолепный век / Muhtesem Yuzyil / Сезон 4 / Серии: 104-139 (Мерт Байкал, Ягиз Алп Акайдын) [2013-2014, Турция, Драма, мелодрама, военный, WEB-DLRip] VO (turok1990) uzi2009
4 | 2

2 | 2667

2

26.05.2014 18:57

T Зарубежное кино [HDDVDRip / BDRip / WEB-DL / HDTV 1080/720р] Великолепная Гилли Хопкинс / The Great Gilly Hopkins (Стивен Херек) [2016 г., комедия, драма, семейный, BDRip 1080p] MVO (GreenРай Studio) makkol
62 | 6

0 | 295

1

01.12.2016 10:44

T Зарубежное кино [HDDVDRip / BDRip / WEB-DL / HDTV 1080/720р] Великолепная Гилли Хопкинс / The Great Gilly Hopkins (Стивен Херек) [2016 г., комедия, драма, семейный, BDRip 720p] MVO (GreenРай Studio) makkol
43 | 16

0 | 270

0

01.12.2016 10:38

T Новинки кино [CAMRip, TS, DVDScr, WP, TC] Великолепная семерка / The Magnificent Seven (Антуан Фукуа) [2016 г., боевик, вестерн, CAMRip] Dub makkol
896 | 23

0 | 848

77

26.09.2016 21:54



Последний раз редактировалось: uzi2009 (18.09.2014 18:09), всего редактировалось 8 раз(а)

06-Май-2014 17:41

Топик был перенесен из форума Зарубежные сериалы [BD / Remux / BDRip / WEB-DL / HDTV 1080/720р] в форум Зарубежные сериалы


90ytr90
 

uzi2009 Пол:Муж

20-Май-2014 11:07

Добавлена 135 серия.

uzi2009 Пол:Муж

26-Май-2014 18:52

Добавлена 136 серия.

Яндекс.Метрика powered by Sphinx


В Н И М А Н И Е
Сайт не распространяет и не хранит электронные версии произведений, а лишь бесплатно и без коммерческой выгоды (не требуя взамен платы,
SMS и т.д.) предоставляет доступ к создаваемому пользователями каталогу ссылок на торрент-файлы, которые содержат только списки хеш-сумм.
Убедительная просьба с жалобами обращаться напрямую к пользователю, разместившему торрент файл.

Вверх