Loading...
Error

Великолепный век / Muhtesem Yuzyil / Сезон 4 / Серии: 104-139 (Мерт Байкал, Ягиз Алп Акайдын) [2013-2014, Турция, Драма, мелодрама, военный, HDTVRip Full HD 1080p] VO (turok1990)

Статистика раздачи
Размер:  138,31 GB   |    Зарегистрирован:  2 года 4 месяца   |    Скачан:  0 раз

Полного источника не было: Никогда

Сидов:  0  |  0 KB/s  ]   Личеров:  0  |  0 KB/s  ]

* - сиды/пиры с внешних источников

   
 
Автор Сообщение

uzi2009 Пол:Муж

06-Май-2014 07:39

Великолепный век / Muhteşem Yüzyıl
Полный 4-ый сезон

Год выпуска: 2013-2014
Страна: Турция
Производство: TIMS Productions
Жанр: Драма, мелодрама, военный
Серии: 104-139 (сезон окончен)
Продолжительность: ~01:50:00
Перевод: любительский одноголосый закадровый (turok1990)
Субтитры: отсутствуют

Режиссёр: Мерт Байкал, Ягиз Алп Акайдын

В ролях: Халит Эргенч, Вахиде Перчин, Нур Айсан, Мехмет Гюнсюр, Беррак Тюзюнатач, Арас Булут Ийнемли, Озан Гювен, Пелин Карахан, Мерве Болугур, Энгин Озтюрк, Тольга Сарыташ, Сарп Аккая, Мельтем Джумбул, Серкан Алтунорак, Тунджель Куртиз, Небахат Чехре, Бурак Озчивит, Окан Ялабык, Филиз Ахмет, Дениз Чакыр, Сельма Эргеч, Селим Байрактар, Гюрбей Илери...

Описание: Сериал повествует о правлении султана Сулеймана Великолепного и его страстной любви к украинской красавице Роксалане. Согласно канонам исламской веры, султан мог иметь четырех законных жен и столько наложниц, сколько сможет содержать. При этом, дети первой жены становились преемниками престола. Роксолана еще девочкой была захвачена в плен и переправлена в Стамбул, где визирь Ибрагим-паша подарил ее султану. Путем интриг, подкупа и умелого обольщения украинская красавица стала женой султана. После принятия ислама она получила имя Хюррем. Сулейман возвел Роксолану в ранг главной жены, и называл ее не иначе как «милой сердцу». Роксолана была не только искусной любовницей, но и умной, интересной собеседницей, хорошо разбирающейся в искусстве и государственных делах. Чтобы реализовать свои амбиции в султанате, Хюррем устраняла всех, кто мог ей в этом помешать. В основу сценария легло несколько исторических романов и средневековых документов.

Качество: HDTVRip
Формат: MKV
Видео кодек: H.264
Аудио кодек: AC3
Видео: MPEG-4 AVC, 1920x1080p, 25 fps, ~4000 Kbps
Аудио 1: Русский, AC3, 48.0 KHz, 2 ch, 256 kbps
Аудио 2: Турецкий, AC3, 48.0 KHz, 2 ch, 256 kbps
General
Complete name : MuhtesemYuzyil_129_1080p_rus.mkv
Format : Matroska
Format version : Version 4 / Version 2
File size : 3.56 GiB
Duration : 1h 52mn
Overall bit rate : 4 512 Kbps
Writing application : mkvmerge v6.0.0
Writing library : libebml v1.3.0 + libmatroska v1.4.0

Video
ID : 1
Format : AVC
Format/Info : Advanced Video Codec
Format profile : High@L4.0
Format settings, CABAC : No
Format settings, ReFrames : 1 frame
Format settings, GOP : M=1, N=12
Codec ID : V_MPEG4/ISO/AVC
Duration : 1h 52mn
Bit rate : 3 910 Kbps
Width : 1 920 pixels
Height : 1 080 pixels
Display aspect ratio : 16:9
Frame rate mode : Constant
Frame rate : 25.000 fps
Color space : YUV
Chroma subsampling : 4:2:0
Bit depth : 8 bits
Scan type : Progressive
Bits/(Pixel*Frame) : 0.075
Stream size : 3.08 GiB (87%)
Default : Yes
Forced : No

Audio #1
ID : 2
Format : AC-3
Format/Info : Audio Coding 3
Mode extension : CM (complete main)
Format settings, Endianness : Big
Codec ID : A_AC3
Duration : 1h 52mn
Bit rate mode : Constant
Bit rate : 256 Kbps
Channel(s) : 2 channels
Channel positions : Front: L R
Sampling rate : 48.0 KHz
Bit depth : 16 bits
Compression mode : Lossy
Stream size : 207 MiB (6%)
Language : Russian
Default : Yes
Forced : No

Audio #2
ID : 3
Format : AC-3
Format/Info : Audio Coding 3
Mode extension : CM (complete main)
Format settings, Endianness : Big
Codec ID : A_AC3
Duration : 1h 52mn
Bit rate mode : Constant
Bit rate : 256 Kbps
Channel(s) : 2 channels
Channel positions : Front: L R
Sampling rate : 48.0 KHz
Bit depth : 16 bits
Compression mode : Lossy
Stream size : 207 MiB (6%)
Language : Turkish
Default : No
Forced : No
pic pic pic pic pic


По мере выхода новых серий - буду стараться обновлять раздачу и добавлять новые серии


Добавлены 135, 136 и 137 серии


Добавлены 138 и 139 серии


4-ый сезон окончен

Этот торрент недоступен для скачивания без регистрации, однако доступен по публичной magnet-ссылке (источники с публичных трекеров). Перед использованием ссылки прочтите, пожалуйста Пользовательское соглашение, а также как можно дольше оставайтесь на раздаче! Для того, чтобы скачать сам торрент-файл (который видит больше источников), а также для того, чтобы поблагодарить релизера, вам необходимо зарегистрироваться. Если регистрироваться лень - вы можете также попробовать скачать релиз по нашим партнерским ссылкам ниже.

[underverse.su].t39866.torrent
Трекер: Зарегистрирован   [ 18.09.2014 18:06 ]  

Статус: проверено (by Паукан at 01.10.2014 13:25)
Поблагодарили: 1 человек
Тип торрента: публичный - доступные источники с открытых трекеров: 
Размер: 138,31 GB (занимает 31,6 DVDR, для записи нужно 32 болванки DVDR/RW)
 
 
Похожие темы
Форум Тема Автор Торрент Отв. Посл. сооб.
T Зарубежное кино [DVDRip, Low-Res HDRip, и т.д.] Великолепная семерка / The Magnificent Seven (Антуан Фукуа / Antoine Fuqua) [2016 г., боевик, вестерн, HDRip] Dub (звук с TS) 90ytr90
77 | 0

0 | 648

32

06.12.2016 17:29

T Зарубежное кино [DVDRip, Low-Res HDRip, и т.д.] Великолепная семерка / The Magnificent Seven (Антуан Фукуа) [2016 г., боевик, вестерн, HDRip] Dub (звук с CAMRip) makkol
276 | 2

0 | 540

18

06.12.2016 14:50

T Зарубежное кино [DVDRip, Low-Res HDRip, и т.д.] Великолепная Гилли Хопкинс / The Great Gilly Hopkins (Стивен Херек) [2016 г., комедия, драма, семейный, HDRip] MVO (GreenРай Studio) makkol
197 | 5

0 | 616

8

01.12.2016 10:31

Зарубежное кино [DVDRip, Low-Res HDRip, и т.д.] Великолепная семерка / The Magnificent Seven (Антуан Фукуа / Antoine Fuqua) [2016 г., боевик, вестерн, BDRip] VO (Solod) 90ytr90
218 | 4

0 | 440

11

15.12.2016 02:57

Зарубежное кино [DVDRip, Low-Res HDRip, и т.д.] Великолепная семерка / The Magnificent Seven (Антуан Фукуа / Antoine Fuqua) [2016 г., боевик, вестерн, BDRip-AVC] Dub + Original (Eng) + Sub (Rus, Eng) 90ytr90
148 | 4

0 | 104

11

18.12.2016 10:51

Зарубежное кино [DVDRip, Low-Res HDRip, и т.д.] Великолепная афера / Matchstick Men (Ридли Скотт / Ridley Scott) [2003 г., триллер, комедия, драма, криминал, HDRip] Dub Паукан
2 | 0

0 | 882

41

05.07.2013 13:56

Зарубежное кино [DVDRip, Low-Res HDRip, и т.д.] Великолепная семерка / The Magnificent Seven (Антуан Фукуа / Antoine Fuqua) [2016 г., боевик, вестерн, BDRip-AVC] Dub + Sub (Rus) 90ytr90
198 | 7

0 | 135

22

16.12.2016 16:58

Зарубежное кино [DVDRip, Low-Res HDRip, и т.д.] Великолепная семерка / The Magnificent Seven (Антуан Фукуа / Antoine Fuqua) [2016 г., боевик, вестерн, HDRip] Dub 90ytr90
59 | 7

0 | 221

4

16.12.2016 15:54

Зарубежное кино [DVDRip, Low-Res HDRip, и т.д.] Великолепная семерка / The Magnificent Seven (Антуан Фукуа / Antoine Fuqua) [2016 г., боевик, вестерн, BDRip-AVC] Dub + Original (Eng) + Sub (Rus, Eng) 90ytr90
226 | 8

0 | 91

7

16.12.2016 15:39

Зарубежное кино [DVDRip, Low-Res HDRip, и т.д.] Великолепная семерка / The Magnificent Seven (Антуан Фукуа / Antoine Fuqua) [2016 г., боевик, вестерн, BDRip] Dub 90ytr90
543 | 10

0 | 117

10

16.12.2016 15:12


Яндекс.Метрика powered by Sphinx


В Н И М А Н И Е
Сайт не распространяет и не хранит электронные версии произведений, а лишь бесплатно и без коммерческой выгоды (не требуя взамен платы,
SMS и т.д.) предоставляет доступ к создаваемому пользователями каталогу ссылок на торрент-файлы, которые содержат только списки хеш-сумм.
Убедительная просьба с жалобами обращаться напрямую к пользователю, разместившему торрент файл.

Вверх