Loading...
Error

Тихая охота (1-30 серии из 30) (Сергей Артимович) [2013 г., детектив, криминал, SatRip]

Статистика раздачи
Размер:  17,76 GB   |    Зарегистрирован:  2 года 6 месяцев   |    Скачан:  18 раз

Полного источника не было: 14 дней

Сидов:  0  |  0 KB/s  ]   Личеров:  0  |  0 KB/s  ]

* - сиды/пиры с внешних источников

   
 
Автор Сообщение

nemos Пол:Муж

01-Май-2014 16:46

Тихая охота


Год выпуска: 2013
Жанр: детектив, криминал
Страна: Россия
Режиссер: Сергей Артимович
В ролях: Максим Дрозд, Павел Баршак, Владимир Стержаков, Анна Зайцева, Павел Трубинер, Микаэл Джанибекян, Александр Тютин, Александр Цуркан, Елена Радевич, Максим Емельянов
Сюжет фильма:
В основе сюжета — работа одного из подразделений криминальной милиции — 13-го отдела уголовного розыска по борьбе с карманными кражами. На профессиональном сленге сотрудников этого отдела называют — «тихари». Собственно это и есть отличительная особенность их службы: незаметная, кропотливая и ювелирно точная «тихая охота» за самой что ни на есть «элитой» криминального мира — «щипачами». И это не только карманники, потому что способов незаметного изъятия у граждан их вещей, имущества и денежных средств — великое множество. «Щипачи», «барсеточники», «марвихеры», «ширмачи», «трясуны», «писари», «рыболовы», «дубилы», «резинщики», «ломщики», «кроты», «театралы» и проч. — далеко не полный перечень тех, с кем ежедневно приходится сталкиваться «тихарям». Ведь преступный мир — зеркальное отображение общества, в котором он существует, и вместе с его развитием он постоянно придумывает и совершенствует новые способы, методы и схемы криминальной «работы». А ведь операм нужно не просто «вычислить» злодея. Его нужно ещё и взять. И не просто взять, а взять с поличным, да так, чтобы у следствия и суда не возникло даже тени сомнения в том, что пойманный злоумышленник непременно «должен сидеть в тюрьме».Каждая история имеет свой оригинальный и законченный сюжет, основанный на реальных событиях.


Качество видео: SatRip

Продолжительность: 00:43:40 серия
Формат: AVI
Видео: XviD, 720х448, 1 797 kbps
Аудио: русский, MP3 2.0, 128 kbps

Код:

D:\Фильмы (роздача)\Tihaya.ohota.2014.SATRip\Tihaya.ohota.01.2014.SATRip.KZ.avi
   General
      Complete name : D:\Фильмы (роздача)\Tihaya.ohota.2014.SATRip\Tihaya.ohota.01.2014.SATRip.KZ.avi
      Format : AVI
      Format/Info : Audio Video Interleave
      File size : 604 MiB
      Duration : 43mn 40s
      Overall bit rate : 1 935 Kbps
      Writing application : VirtualDubMod 1.5.10.3 | www.virtualdub-fr.org || (build 2550/release)
      Writing library : VirtualDub build 32507/release
   Video #0
      ID : 0
      Format : MPEG-4 Visual
      Format profile : Advanced Simple@L5
      Format settings, BVOP : 2
      Format settings, QPel : No
      Format settings, GMC : No warppoints
      Format settings, Matrix : Default (MPEG)
      Codec ID : XVID
      Codec ID/Hint : XviD
      Duration : 43mn 40s
      Bit rate : 1 797 Kbps
      Width : 720 pixels
      Height : 448 pixels
      Display aspect ratio : 1.607
      Frame rate : 25.000 fps
      Color space : YUV
      Chroma subsampling : 4:2:0
      Bit depth : 8 bits
      Scan type : Progressive
      Compression mode : Lossy
      Bits/(Pixel*Frame) : 0.223
      Stream size : 561 MiB (93%)
      Writing library : XviD 1.2.1 (UTC 2008-12-04)
   Audio #1
      ID : 1
      Format : MPEG Audio
      Format version : Version 1
      Format profile : Layer 3
      Mode : Joint stereo
      Codec ID : 55
      Codec ID/Hint : MP3
      Duration : 43mn 40s
      Bit rate mode : Constant
      Bit rate : 128 Kbps
      Channel(s) : 2 channels
      Sampling rate : 48.0 KHz
      Compression mode : Lossy
      Stream size : 40.0 MiB (7%)
      Alignment : Aligned on interleaves
      Interleave, duration : 40 ms (1.00 video frame)
      Interleave, preload duration : 504 ms
      Writing library : LAME3.99r
      Encoding settings : -m j -V 4 -q 2 -lowpass 17 -b 128
picpicpicpicpicpicpicpicpicpicpic
Для увеличения картинки щелкните мышкой по превью

Этот торрент недоступен для скачивания без регистрации, однако доступен по публичной magnet-ссылке (источники с публичных трекеров). Перед использованием ссылки прочтите, пожалуйста Пользовательское соглашение, а также как можно дольше оставайтесь на раздаче! Для того, чтобы скачать сам торрент-файл (который видит больше источников), а также для того, чтобы поблагодарить релизера, вам необходимо зарегистрироваться. Если регистрироваться лень - вы можете также попробовать скачать релиз по нашим партнерским ссылкам ниже.

[underverse.su].t39655.torrent
Трекер: Зарегистрирован   [ 03.05.2014 21:32 ]  

Статус: проверено (by 90ytr90 at 04.05.2014 16:54)
Поблагодарили: 2 человека
Тип торрента: публичный - доступные источники с открытых трекеров: 
Размер: 17,76 GB (занимает 4,06 DVDR, для записи нужно 5 болванок DVDR/RW)
 
 


Последний раз редактировалось: nemos (06.11.2014 08:29), всего редактировалось 2 раз(а)

nemos Пол:Муж

02-Май-2014 15:25

Торр файл обновлён . 30 серий.

Яндекс.Метрика powered by Sphinx


В Н И М А Н И Е
Сайт не распространяет и не хранит электронные версии произведений, а лишь бесплатно и без коммерческой выгоды (не требуя взамен платы,
SMS и т.д.) предоставляет доступ к создаваемому пользователями каталогу ссылок на торрент-файлы, которые содержат только списки хеш-сумм.
Убедительная просьба с жалобами обращаться напрямую к пользователю, разместившему торрент файл.

Вверх