Loading...
Error

Таинственный путь / Mystery Road (Иван Сен) [2013 г., триллер, детектив, HDRip] VO [datynet]

Статистика раздачи
Размер:  1,37 GB   |    Зарегистрирован:  2 года 7 месяцев   |    Скачан:  22 раза

Полного источника не было: 1 месяц 11 дней

Сидов:  0  |  0 KB/s  ]   Личеров:  0  |  0 KB/s  ]

* - сиды/пиры с внешних источников

   
 
Автор Сообщение

Паукан Пол:Муж

30-Апр-2014 11:50

Таинственный путь / Mystery Road


Название: Таинственный путь
Оригинальное название: Mystery Road
Год выхода: 2013
Жанр: триллер, детектив
Режиссер: Иван Сен
В ролях: Аарон Педерсен, Хьюго Уивинг, Райан Квантен, Джек Томпсон, Тони Бэрри, Роберт Маммоне, Тасма Уолтон, Дэмиэн Уолш-Хоулинг, Дэвид Филд, Брюс Спенс

О фильме:
Джей Сван, детектив, возвращающийся в свой родной город в глубинке и начинающий расследовать одно жестокое преступление. Ему предстоит найти виновников убийства молодой девушки, чье тело было найдено в дренаже под шоссе…



Страна: Австралия
Студия: Mystery Road Films, Screen Australia
Продолжительность: 01:58:35
Перевод: Любительский (одноголосый) [datynet]

Кодек: XviD
Качество: HDRip
Видео: 720x304, 1457 kbps, 24 fps, 0.277 Bits/(Pixel*Frame)
Звук: AC3, 44,1 kHz, 192 kbps, 2 ch
Субтитры: Нет

Автор рипа: _Bathory_
General
Complete name : G:\Mystery.Road.2013.HDRip_by_Bathory.avi
Format : AVI
Format/Info : Audio Video Interleave
File size : 1.37 GiB
Duration : 1h 58mn
Overall bit rate : 1 658 Kbps
Writing application : VirtualDubMod 1.5.10.3 | www.virtualdub-fr.org || (build 2550/release)
Writing library : VirtualDubMod build 2550/release

Video
ID : 0
Format : MPEG-4 Visual
Format profile : Advanced Simple@L5
Format settings, BVOP : 1
Format settings, QPel : No
Format settings, GMC : No warppoints
Format settings, Matrix : Default (MPEG)
Codec ID : XVID
Codec ID/Hint : XviD
Duration : 1h 58mn
Bit rate : 1 457 Kbps
Width : 720 pixels
Height : 304 pixels
Display aspect ratio : 2.35:1
Frame rate : 24.000 fps
Color space : YUV
Chroma subsampling : 4:2:0
Bit depth : 8 bits
Scan type : Progressive
Compression mode : Lossy
Bits/(Pixel*Frame) : 0.277
Stream size : 1.21 GiB (88%)
Writing library : XviD 73

Audio
ID : 1
Format : MPEG Audio
Format version : Version 1
Format profile : Layer 3
Mode : Joint stereo
Mode extension : MS Stereo
Codec ID : 55
Codec ID/Hint : MP3
Duration : 1h 58mn
Bit rate mode : Constant
Bit rate : 192 Kbps
Channel count : 2 channels
Sampling rate : 44.1 KHz
Compression mode : Lossy
Stream size : 163 MiB (12%)
Alignment : Split accross interleaves
Interleave, duration : 42 ms (1.00 video frame)
Interleave, preload duration : 500 ms
Writing library : LAME3.99r
Encoding settings : -m j -V 4 -q 2 -lowpass 18.6 -b 192
pic pic pic
Для увеличения картинки щелкните мышкой по превью

Этот торрент недоступен для скачивания без регистрации, однако доступен по публичной magnet-ссылке (источники с публичных трекеров). Перед использованием ссылки прочтите, пожалуйста Пользовательское соглашение, а также как можно дольше оставайтесь на раздаче! Для того, чтобы скачать сам торрент-файл (который видит больше источников), а также для того, чтобы поблагодарить релизера, вам необходимо зарегистрироваться. Если регистрироваться лень - вы можете также попробовать скачать релиз по нашим партнерским ссылкам ниже.

[underverse.su].t39504.torrent
Трекер: Зарегистрирован   [ 30.04.2014 11:50 ]  

Статус: проверено (by Паукан at 30.04.2014 11:50)
Поблагодарили: пока никто не поблагодарил...
Тип торрента: публичный - доступные источники с открытых трекеров: 
Размер: 1,37 GB (занимает 0,31 DVDR, для записи нужно 1 болванка DVDR/RW)
 
 
Похожие темы
Форум Тема Автор Торрент Отв. Посл. сооб.
Зарубежное кино [DVDRip, Low-Res HDRip, и т.д.] Таинственный Альберт Ноббс / Albert Nobbs (Родриго Гарсия) [2011 г., драма, HDRip] RG NewCinema
0 | 0

0 | 442

1

20.06.2012 15:12

Зарубежное кино [DVDRip, Low-Res HDRip, и т.д.] Таинственный остров / Mysterious Island (Кай Чунг Чунг / Kai Cheung Chung) [2011 г., ужасы, DVDRip] VO (den904) 90ytr90
2 | 0

0 | 528

6

24.09.2012 15:08

Зарубежное кино [DVDRip, Low-Res HDRip, и т.д.] Таинственный Альберт Ноббс / Albert Nobbs (Родриго Гарсия / Rodrigo Garcia) [2011, Великобритания, Ирландия, Франция, США, драма, HDRip] MVO Garnett
0 | 0

0 | 530

11

26.04.2013 16:50

BBC Таинственный мир гормонов / The Fantastical World of Hormones with Professor John Wass (Джеймс Сенди) [2014 г., документальный, научно-познавательный, HDTVRip 720p] Dub + Original (Eng) + Sub (Eng) ARI71
1 | 0

1 | 364

3

24.09.2016 21:25

BBC Таинственный мир гормонов / The Fantastical World of Hormones with Professor John Wass (Джеймс Сенди) [2014 г., документальный, научно-познавательный, HDTVRip] Dub (Видеофильм ТВ) ARI71
65 | 0

1 | 494

6

04.10.2016 11:29

Научно-популярные фильмы Таинственная Россия - Пермский край [2011 г., документальный, TVRip] матроскин
0 | 0

2 | 709

9

02.05.2015 20:30

Научно-популярные фильмы Таинственная Россия - Ставропольский край [2013 г., документальный, TVRip] матроскин
0 | 0

2 | 716

9

02.05.2015 20:27

Релизы Таинственные сказки: Околдованный город. Коллекционное издание / Shrouded Tales: The Spellbound Land. Collector's Edition [2014 г., Квест, Поиск Предметов] RUS [P] Станислав Карбанович
57 | 1

1 | 897

16

25.02.2015 17:20

* Архив Таинственный остров (Владимир Тихий) [2008 г., триллер, DVDRip] seriiko

7 | 1610

29.08.2010 23:52

Архив Таинственная игра / Fushigi Yuugi / Mysterious Play / TV-series, 1-52 из 52 (Камэгаки Хадзимэ) [1995 г., приключения, романтика, фэнтези, сёдзё, DVD-9] Печаль'ka
0 | 0

2 | 2172

0

17.02.2011 14:46


Яндекс.Метрика powered by Sphinx


В Н И М А Н И Е
Сайт не распространяет и не хранит электронные версии произведений, а лишь бесплатно и без коммерческой выгоды (не требуя взамен платы,
SMS и т.д.) предоставляет доступ к создаваемому пользователями каталогу ссылок на торрент-файлы, которые содержат только списки хеш-сумм.
Убедительная просьба с жалобами обращаться напрямую к пользователю, разместившему торрент файл.

Вверх