Loading...
Error

До свидания, мальчики (1-16 серии из 16) (Сергей Крутин) [2014 г., Военный, Драма, SatRip-AVC]

Статистика раздачи
Размер:  11,19 GB   |    Зарегистрирован:  2 года 7 месяцев   |    Скачан:  14 раз

Полного источника не было: 1 день 9 часов

Сидов:  0  |  0 KB/s  ]   Личеров:  0  |  0 KB/s  ]

* - сиды/пиры с внешних источников

   
 
Автор Сообщение

nemos Пол:Муж

29-Апр-2014 06:14

До свидания, мальчики


Год выпуска: 2014
Жанр: Военный, Драма
Страна: Россия
Режиссер: Сергей Крутин
В ролях: Владимир Вдовиченков, Мария Шукшина, Андрей Соколов, Елена Ксенофонтова, Артур Ваха, Анатолий Кот, Екатерина Волкова, Вячеслав Манучаров, Александр Наумов, Елизавета Пащенко, Илья Шляга, Лина Шишова, Евгений Капорин, Иван Соловьев (III)
Сюжет фильма:
1941 год, последние мирные дни... Бывший детдомовец Саша Воронов приезжает в небольшой городок под Москвой поступать в местное артиллерийское училище. Здесь у него появляются новые друзья - Надя, Гена и Коля, вместе с которыми он разоблачает завербованного агента немецкой разведки. Начинается война. Саша, Гена и Коля становятся курсантами артиллерийского училища. И, несмотря на то, что постигать военную науку им приходится по тринадцать часов в день, они успевают и влюбляться, и между собой конфликтовать, и в самоволку бегать... Осенью 1941 года нависает угроза выхода немецких войск непосредственно к Москве. 5 октября курсантов и преподавателей артиллерийского училища поднимают по тревоге. Им предстоит любой ценой задержать продвижение врага до подхода резервов Верховного Командования. Все мальчишки уходят в числе первых...
Качество видео: SatRip-AVC

Продолжительность: 00:49:38 серия
Формат: MKV
Видео: MPEG-4 AVC, 720х400 , 1 764 kbps
Аудио: русский, AC3 2.0, 192 kbps

Код:

D:\Фильмы (роздача)\До свидания, мальчики\01 серия.mkv
   General
      Unique ID : 168348648403719580577546155723716462494 (0x7EA6C532C2870C1E037BA147C20E879E)
      Complete name : D:\Фильмы (роздача)\До свидания, мальчики\01 серия.mkv
      Format : Matroska
      Format version : Version 2
      File size : 708 MiB
      Duration : 49mn 38s
      Overall bit rate : 1 995 Kbps
      Writing application : Lavf51.12.1
      Writing library : Lavf51.12.1
   Video #1
      ID : 1
      Format : AVC
      Format/Info : Advanced Video Codec
      Format profile : High@L3.0
      Format settings, CABAC : No
      Format settings, ReFrames : 1 frame
      Format settings, GOP : M=1, N=12
      Codec ID : V_MPEG4/ISO/AVC
      Duration : 49mn 38s
      Bit rate : 1 764 Kbps
      Width : 720 pixels
      Height : 400 pixels
      Display aspect ratio : 16:9
      Frame rate mode : Constant
      Frame rate : 25.000 fps
      Color space : YUV
      Chroma subsampling : 4:2:0
      Bit depth : 8 bits
      Scan type : Progressive
      Bits/(Pixel*Frame) : 0.245
      Stream size : 626 MiB (88%)
      Default : Yes
      Forced : No
   Audio #2
      ID : 2
      Format : AC-3
      Format/Info : Audio Coding 3
      Mode extension : CM (complete main)
      Format settings, Endianness : Big
      Codec ID : A_AC3
      Duration : 49mn 38s
      Bit rate mode : Constant
      Bit rate : 192 Kbps
      Channel(s) : 2 channels
      Channel positions : Front: L R
      Sampling rate : 48.0 KHz
      Bit depth : 16 bits
      Compression mode : Lossy
      Stream size : 68.2 MiB (10%)
      Default : Yes
      Forced : No
picpicpicpicpicpicpic
Для увеличения картинки щелкните мышкой по превью

Этот торрент недоступен для скачивания без регистрации, однако доступен по публичной magnet-ссылке (источники с публичных трекеров). Перед использованием ссылки прочтите, пожалуйста Пользовательское соглашение, а также как можно дольше оставайтесь на раздаче! Для того, чтобы скачать сам торрент-файл (который видит больше источников), а также для того, чтобы поблагодарить релизера, вам необходимо зарегистрироваться. Если регистрироваться лень - вы можете также попробовать скачать релиз по нашим партнерским ссылкам ниже.

[underverse.su].t40001.torrent
Трекер: Зарегистрирован   [ 09.05.2014 12:16 ]  

Статус: проверено (by 90ytr90 at 13.05.2014 18:34)
Поблагодарили: 2 человека
Тип торрента: публичный - доступные источники с открытых трекеров: 
Размер: 11,19 GB (занимает 2,56 DVDR, для записи нужно 3 болванки DVDR/RW)
 
 


Последний раз редактировалось: nemos (06.11.2014 08:29), всего редактировалось 8 раз(а)

nemos Пол:Муж

30-Апр-2014 15:16

Раздача обновлена: 16-ть серий.

Яндекс.Метрика powered by Sphinx


В Н И М А Н И Е
Сайт не распространяет и не хранит электронные версии произведений, а лишь бесплатно и без коммерческой выгоды (не требуя взамен платы,
SMS и т.д.) предоставляет доступ к создаваемому пользователями каталогу ссылок на торрент-файлы, которые содержат только списки хеш-сумм.
Убедительная просьба с жалобами обращаться напрямую к пользователю, разместившему торрент файл.

Вверх