Loading...
Error

Опасная любовь (4 серии из 4) (Кирилл Капица) [2013 г., криминал, драма, SatRip]

Статистика раздачи
Размер:  2,4 GB   |    Зарегистрирован:  2 года 7 месяцев   |    Скачан:  16 раз

Полного источника не было: 3 месяца 26 дней

Сидов:  0  |  0 KB/s  ]   Личеров:  0  |  0 KB/s  ]

* - сиды/пиры с внешних источников

   
 
Автор Сообщение

nemos Пол:Муж

27-Апр-2014 22:17

Опасная любовь


Год выпуска: 2013
Жанр: криминал, драма
Страна: Россия
Режиссер: Кирилл Капица
В ролях: Игорь Лифанов, Кирилл Капица, Игорь Петрусенко, Ада Роговцева, Анна Сырбу, Сергей Воробьёв, Владимир Щербаков, Сергей Деревянко, Владимир Осадчий, Вячеслав Довженко
Сюжет фильма:
Офицер полиции Кирилл Поляков внедрен в банду наркоторговцев — его цель — обокрасть «товарищей», сдать их полиции, а самому скрыться с деньгами. Жена Полякова Вика ни о чем таком не подозревает, но сходит с ума от переживаний, поскольку за последние два месяца муж очень изменился. Главарь банды Иван Золотарев, вычислив Полякова, решает «прижать» крысу после совершения готовящегося крупного ограбления — и это ему удается. Но местонахождение похищенных денег остается неизвестным, и тогда Золотарев втирается Вике в доверие, ошибочно полагая, что муж посвятил ее в свои планы.


Качество видео: SatRip

Продолжительность: 00:45:08 серия
Формат: AVI
Видео: XviD, 720x448, 1800 kbps
Аудио: русский, MP3 2.0, 128 kbps

Код:

D:\Фильмы (роздача)\Opasnaya.lyubovj.2014.SATRip.NNM-CLUB\4.serija.avi
   General
      Complete name : D:\Фильмы (роздача)\Opasnaya.lyubovj.2014.SATRip.NNM-CLUB\4.serija.avi
      Format : AVI
      Format/Info : Audio Video Interleave
      File size : 626 MiB
      Duration : 45mn 8s
      Overall bit rate : 1 938 Kbps
      Writing application : VirtualDubMod 1.5.10.3 | www.virtualdub-fr.org || (build 2550/release)
      Writing library : VirtualDub build 32507/release
   Video #0
      ID : 0
      Format : MPEG-4 Visual
      Format profile : Advanced Simple@L5
      Format settings, BVOP : 2
      Format settings, QPel : No
      Format settings, GMC : No warppoints
      Format settings, Matrix : Default (MPEG)
      Codec ID : XVID
      Codec ID/Hint : XviD
      Duration : 45mn 8s
      Bit rate : 1 800 Kbps
      Width : 720 pixels
      Height : 448 pixels
      Display aspect ratio : 1.607
      Frame rate : 25.000 fps
      Color space : YUV
      Chroma subsampling : 4:2:0
      Bit depth : 8 bits
      Scan type : Progressive
      Compression mode : Lossy
      Bits/(Pixel*Frame) : 0.223
      Stream size : 581 MiB (93%)
      Writing library : XviD 1.2.1 (UTC 2008-12-04)
   Audio #1
      ID : 1
      Format : MPEG Audio
      Format version : Version 1
      Format profile : Layer 3
      Mode : Joint stereo
      Codec ID : 55
      Codec ID/Hint : MP3
      Duration : 45mn 8s
      Bit rate mode : Constant
      Bit rate : 128 Kbps
      Channel(s) : 2 channels
      Sampling rate : 48.0 KHz
      Compression mode : Lossy
      Stream size : 41.3 MiB (7%)
      Alignment : Aligned on interleaves
      Interleave, duration : 40 ms (1.00 video frame)
      Interleave, preload duration : 504 ms
      Writing library : LAME3.99r
      Encoding settings : -m j -V 4 -q 2 -lowpass 17 -b 128
picpicpicpicpicpicpicpicpicpicpicpicpic
Для увеличения картинки щелкните мышкой по превью

Этот торрент недоступен для скачивания без регистрации, однако доступен по публичной magnet-ссылке (источники с публичных трекеров). Перед использованием ссылки прочтите, пожалуйста Пользовательское соглашение, а также как можно дольше оставайтесь на раздаче! Для того, чтобы скачать сам торрент-файл (который видит больше источников), а также для того, чтобы поблагодарить релизера, вам необходимо зарегистрироваться. Если регистрироваться лень - вы можете также попробовать скачать релиз по нашим партнерским ссылкам ниже.

[underverse.su].t39266.torrent
Трекер: Зарегистрирован   [ 27.04.2014 22:17 ]  

Статус: проверено (by Паукан at 28.04.2014 07:57)
Поблагодарили: пока никто не поблагодарил...
Тип торрента: публичный - доступные источники с открытых трекеров: 
Размер: 2,4 GB (занимает 0,55 DVDR, для записи нужно 1 болванка DVDR/RW)
 
 

Яндекс.Метрика powered by Sphinx


В Н И М А Н И Е
Сайт не распространяет и не хранит электронные версии произведений, а лишь бесплатно и без коммерческой выгоды (не требуя взамен платы,
SMS и т.д.) предоставляет доступ к создаваемому пользователями каталогу ссылок на торрент-файлы, которые содержат только списки хеш-сумм.
Убедительная просьба с жалобами обращаться напрямую к пользователю, разместившему торрент файл.

Вверх