Loading...
Error

Танкисты своих не бросают (1-4 серии из 4) (Александр Грабарь) [2014 г., Мелодрама, драма, SatRip]

Статистика раздачи
Размер:  2,12 GB   |    Зарегистрирован:  2 года 7 месяцев   |    Скачан:  10 раз

Полного источника не было: 1 месяц 20 дней

Сидов:  0  |  0 KB/s  ]   Личеров:  0  |  0 KB/s  ]

* - сиды/пиры с внешних источников

   
 
Автор Сообщение

nemos Пол:Муж

26-Апр-2014 18:12

Танкисты своих не бросают


Год выпуска: 2014
Жанр: Мелодрама, драма
Страна: Россия
Режиссер: Александр Грабарь
В ролях: Ирина Пегова, Константин Милованов, Мария Луговая, Александр Яцко, Александр Никитин, Екатерина Маликова, Борис Тенин, Алиса Гребенщикова, Анатолий Гущин, Александр Стёпин
Сюжет фильма:
Наконец-то Марина счастлива. Одинокая женщина, потерявшая сына и мужа, она снова выходит замуж — за капитана танковых войск в отставке Федора. Но вскоре ее муж получает травму, после чего давнее ранение дает о себе знать. Федор при смерти. Спасти его может профессор Росман, местное светило медицины. Операция стоит больших денег, которых в семье нет, а бесплатно помочь врач отказывается. Марина продает все ценности, часть денег собирают однополчане ее мужа. Но с трудом собранную сумму крадут. А Федору становится все хуже. И тогда скромная женщина решается на отчаянный шаг: она похищает дочь профессора, Кристину, и требует спасти мужа в обмен на безопасность девушки…


Качество видео: SatRip

Продолжительность: 00:47:00 серия
Формат: AVI
Видео: XviD, 720x400, 1400 kbps
Аудио: русский, MP3 2.0, 192 kbps

Код:

D:\Фильмы (роздача)\Танкисты своих не бросают (2014)\Танкисты своих не бросают.(01.seriya).2014.XviD.SATRip.by.simka.avi
   General
      Complete name : D:\Фильмы (роздача)\Танкисты своих не бросают (2014)\Танкисты своих не бросают.(01.seriya).2014.XviD.SATRip.by.simka.avi
      Format : AVI
      Format/Info : Audio Video Interleave
      File size : 538 MiB
      Duration : 47mn 0s
      Overall bit rate : 1 602 Kbps
      Writing application : VirtualDubModRus 1.5.10.2 (build 2542/release)
      Writing library : VirtualDubMod build 2542/release
   Video #0
      ID : 0
      Format : MPEG-4 Visual
      Format profile : Advanced Simple@L5
      Format settings, BVOP : 1
      Format settings, QPel : No
      Format settings, GMC : No warppoints
      Format settings, Matrix : Default (MPEG)
      Codec ID : XVID
      Codec ID/Hint : XviD
      Duration : 47mn 0s
      Bit rate : 1 400 Kbps
      Width : 720 pixels
      Height : 400 pixels
      Display aspect ratio : 16:9
      Frame rate : 25.000 fps
      Color space : YUV
      Chroma subsampling : 4:2:0
      Bit depth : 8 bits
      Scan type : Progressive
      Compression mode : Lossy
      Bits/(Pixel*Frame) : 0.194
      Stream size : 471 MiB (87%)
      Writing library : XviD 1.2.1 (UTC 2008-12-04)
   Audio #1
      ID : 1
      Format : MPEG Audio
      Format version : Version 1
      Format profile : Layer 3
      Mode : Joint stereo
      Mode extension : MS Stereo
      Codec ID : 55
      Codec ID/Hint : MP3
      Duration : 47mn 0s
      Bit rate mode : Constant
      Bit rate : 192 Kbps
      Channel(s) : 2 channels
      Sampling rate : 48.0 KHz
      Compression mode : Lossy
      Stream size : 64.5 MiB (12%)
      Alignment : Aligned on interleaves
      Interleave, duration : 40 ms (1.00 video frame)
      Interleave, preload duration : 504 ms
      Writing library : LAME3.99r
      Encoding settings : -m j -V 4 -q 2 -lowpass 18.6 -b 192
picpicpicpicpicpicpicpicpic
Для увеличения картинки щелкните мышкой по превью

Этот торрент недоступен для скачивания без регистрации, однако доступен по публичной magnet-ссылке (источники с публичных трекеров). Перед использованием ссылки прочтите, пожалуйста Пользовательское соглашение, а также как можно дольше оставайтесь на раздаче! Для того, чтобы скачать сам торрент-файл (который видит больше источников), а также для того, чтобы поблагодарить релизера, вам необходимо зарегистрироваться. Если регистрироваться лень - вы можете также попробовать скачать релиз по нашим партнерским ссылкам ниже.

[underverse.su].t39246.torrent
Трекер: Зарегистрирован   [ 26.04.2014 20:34 ]  

Статус: проверено (by Паукан at 28.04.2014 07:56)
Поблагодарили: пока никто не поблагодарил...
Тип торрента: публичный - доступные источники с открытых трекеров: 
Размер: 2,12 GB (занимает 0,48 DVDR, для записи нужно 1 болванка DVDR/RW)
 
 

Яндекс.Метрика powered by Sphinx


В Н И М А Н И Е
Сайт не распространяет и не хранит электронные версии произведений, а лишь бесплатно и без коммерческой выгоды (не требуя взамен платы,
SMS и т.д.) предоставляет доступ к создаваемому пользователями каталогу ссылок на торрент-файлы, которые содержат только списки хеш-сумм.
Убедительная просьба с жалобами обращаться напрямую к пользователю, разместившему торрент файл.

Вверх