Loading...
Error

Дубровский (Александр Вартанов, Кирилл Михановский) [2014 г., драма, BDRip] HQ Underverse

Статистика раздачи
Размер:  2,17 GB   |    Зарегистрирован:  2 года 7 месяцев   |    Скачан:  47 раз

Полного источника не было: 21 день

Сидов:  0  |  0 KB/s  ]   Личеров:  0  |  0 KB/s  ]

* - сиды/пиры с внешних источников

   
 
Автор Сообщение

HQ Underverse 

25-Апр-2014 09:08

Дубровский


Год выпуска: 2014
Жанр: драма
Страна: Россия
Режиссер: Александр Вартанов, Кирилл Михановский
В ролях: Данила Козловский, Клавдия Коршунова, Юрий Цурило, Александр Мезенцев, Игорь Гордин, Дмитрий Поднозов, Елена Дудина, Евгений Вакунов, Артем Кобзев, Любовь Сергеева
Сюжет фильма:
Владимир Дубровский — успешный столичный юрист и завсегдатай модных клубов, Маша Троекурова — выпускница английского колледжа и нежная дочь… Хозяева собственных судеб, они едва ли похожи на героев Пушкина. Но внезапная ссора их отцов решительно меняет жизнь Владимира и Маши — они погружаются в реальность, где действуют совсем другие законы…

  • Мировая премьера: 6 марта 2014
  • Российская премьера: 6 марта 2014, «DreamTeam»

Качество видео: BDRip

Продолжительность: 02:10:27
Формат: avi
Видео: XviD, 720x384, 1987 kbps
Аудио: русский, оригинал, AC3 5.1, 384 kbps

Код:

General
Complete name                    : Z:\windoza-share\Дубровский\Dubrovsky.2013.BDRip.XviD.AC3.Rus.O.HQ.Underverse.avi
Format                           : AVI
Format/Info                      : Audio Video Interleave
Format profile                   : OpenDML
File size                        : 2.23 GiB
Duration                         : 2h 10mn
Overall bit rate                 : 2 448 Kbps
Writing application              : VirtualDubMod 1.5.10.2 (build 2542/release)
Writing library                  : VirtualDubMod build 2542/release

Video
ID                               : 0
Format                           : MPEG-4 Visual
Format profile                   : Streaming Video@L1
Format settings, BVOP            : Yes
Format settings, QPel            : No
Format settings, GMC             : No warppoints
Format settings, Matrix          : Custom
Muxing mode                      : Packed bitstream
Codec ID                         : XVID
Codec ID/Hint                    : XviD
Duration                         : 2h 10mn
Bit rate                         : 1 988 Kbps
Width                            : 720 pixels
Height                           : 384 pixels
Display aspect ratio             : 1.875
Frame rate                       : 24.000 fps
Resolution                       : 24 bits
Colorimetry                      : 4:2:0
Scan type                        : Progressive
Bits/(Pixel*Frame)               : 0.300
Stream size                      : 1.81 GiB (81%)
Writing library                  : XviD 64

Audio
ID                               : 1
Format                           : AC-3
Format/Info                      : Audio Coding 3
Codec ID                         : 2000
Duration                         : 2h 10mn
Bit rate mode                    : Constant
Bit rate                         : 448 Kbps
Channel(s)                       : 6 channels
Channel positions                : Front: L C R, Surround: L R, LFE
Sampling rate                    : 48.0 KHz
Stream size                      : 418 MiB (18%)
Alignment                        : Split accross interleaves
Interleave, duration             : 42 ms (1.00 video frame)
Interleave, preload duration     : 500 ms

Релиз группы:

picpicpic
Для увеличения картинки щелкните мышкой по превью

Этот торрент недоступен для скачивания без регистрации, однако доступен по публичной magnet-ссылке (источники с публичных трекеров). Перед использованием ссылки прочтите, пожалуйста Пользовательское соглашение, а также как можно дольше оставайтесь на раздаче! Для того, чтобы скачать сам торрент-файл (который видит больше источников), а также для того, чтобы поблагодарить релизера, вам необходимо зарегистрироваться. Если регистрироваться лень - вы можете также попробовать скачать релиз по нашим партнерским ссылкам ниже.

[underverse.su].t39204.torrent
Трекер: Зарегистрирован   [ 25.04.2014 09:48 ]  

Статус: проверено (by HQ Underverse at 25.04.2014 09:48)
Поблагодарили: 7 человек
Тип торрента: публичный - доступные источники с открытых трекеров: 
Размер: 2,17 GB (занимает 1/2 DVDR, для записи нужно 1 болванка DVDR/RW)
 
 
Похожие темы
Форум Тема Автор Торрент Отв. Посл. сооб.
Наше кино [DVDRip, Low-Res HDRip, и т.д.] Дубровский (Александр Вартанов, Кирилл Михановский) [2014 г., драма, BDRip] 90ytr90
9 | 0

0 | 433

22

13.04.2014 19:05

Наше кино [DVDRip, Low-Res HDRip, и т.д.] Дубровский (Александр Вартанов, Кирилл Михановский) [2014 г., драма, BDRip-AVC] Original + Sub (Rus) 90ytr90
0 | 1

0 | 344

8

14.04.2014 14:32

Наше кино [DVDRip, Low-Res HDRip, и т.д.] Дубровский (Александр Вартанов, Кирилл Михановский) [2014 г., драма, BDRip] 90ytr90
0 | 0

0 | 591

11

19.04.2014 16:34

Наше кино [DVD / HDDVD / BD / Remux] Дубровский (Александр Вартанов, Кирилл Михановский) [2014, Россия, драма, Blu-ray disc] + Sub Rus, Eng uzi2009
3 | 0

0 | 1021

5

16.07.2014 08:14

T Наше кино [HDDVDRip / BDRip / WEB-DL / HDTV 1080/720р] Дубровский (Александр Вартанов, Кирилл Михановский) [2014 г., драма, BDRip 720p] 90ytr90
0 | 0

0 | 484

24

14.04.2014 14:23

Наше кино [HDDVDRip / BDRip / WEB-DL / HDTV 1080/720р] Дубровский (Александр Вартанов, Кирилл Михановский) [2014 г., драма, BDRip 1080p] Original + Sub (Rus, Eng) 90ytr90
0 | 0

0 | 391

14

19.04.2014 19:55


Яндекс.Метрика powered by Sphinx


В Н И М А Н И Е
Сайт не распространяет и не хранит электронные версии произведений, а лишь бесплатно и без коммерческой выгоды (не требуя взамен платы,
SMS и т.д.) предоставляет доступ к создаваемому пользователями каталогу ссылок на торрент-файлы, которые содержат только списки хеш-сумм.
Убедительная просьба с жалобами обращаться напрямую к пользователю, разместившему торрент файл.

Вверх