Loading...
Error

Кадетство / Сезон:2 / Серии: 1-50 из 50 (Валентин Козловский) [2007 г., драма, комедия, приключения, DVDRip]

Статистика раздачи
Размер:  24,43 GB   |    Зарегистрирован:  2 года 7 месяцев   |    Скачан:  2 раза

Полного источника не было: 6 месяцев

Сидов:  0  |  0 KB/s  ]   Личеров:  0  |  0 KB/s  ]

* - сиды/пиры с внешних источников

   
 
Автор Сообщение

konopic Пол:Муж

25-Апр-2014 09:02

Кадетство


Год выпуска: 2007
Жанр: драма, комедия, приключения
Страна: Россия, "Киноконстанта"
Режиссер: Валентин Козловский
В ролях: Александр Головин, Павел Бессонов, Аристарх Венес, Борис Корчевников, Артем Терехов, Артур Сопельник, Кирилл Емельянов, Вадим Андреев, Валерий Баринов, Елена Захарова, Алина Колкер, Виталий Кудрявцев, Ирина Медведева, Сергей Плотников (II), Александр Пороховщиков, Дарья Соболева, Линда Табагари, Юлия Учиткина, Владимир Балдов, Сергей Жолобов, Владимир Стеклов, Виталий Абдулов, Виктория Алашеева, Егор Баринов, Владимир Белоусов (II), Светлана Варецкая, Фёдор Добронравов, Андрей Иванов (VI), Вероника Изотова, Элеонора Ильченко, Владимир Лаптев, Галина Лебедева, Ольга Лукьяненко, Елена Мольченко (Фатюшина), Александр Никулин, Владимир Павленко, Татьяна Пискарёва, Борис Полунин
Сюжет фильма:
Пролетело время, прошел первый год учебы в Суворовском, и даже половина второго… В училище тишина и покой – суворовцы на зимних каникулах. Нашим героям уже по 16 лет. Полтора года, проведенные в военном учреждении, дают о себе знать: вскоре мальчишки соберутся вместе, и мы увидим, что за это время они стали строже, подтянутей, грубее. О «сосах» отзываются с пренебрежением: «набрали, мол, мелкоту – одних хлюпиков!». К программе обучения добавились специальные предметы – военные. Но детство пока не собирается отступать, мальчишки по-прежнему готовы использовать любой предлог, чтобы подурачиться. Правда, шутить и разыгрывать преподавателей они теперь стараются изощреннее, «разводят» их по-взрослому. А ответственность за свои поступки только начинает осознаваться ребятами как признак мужественности и зрелости...
Качество видео: DVDRip

Продолжительность: 50 x ~ 00:44:00
Формат: AVI
Видео: 640x368, 25 fps, XviD MPEG-4 ~1362 kbps avg, 0.19 bit/pixel
Аудио: AC3, 48.0 KHz, 2 ch, 192 Kbps

Код:

General
Complete name : E:\Сериалы\Kadetstvo.2.sezon.DVDRip\Kadetstvo-2.01.seriya.DVDRip.avi
Format : AVI
Format/Info : Audio Video Interleave
File size : 500 MiB
Duration : 44mn 43s
Overall bit rate : 1 563 Kbps
Writing application : VirtualDubMod 1.5.10.3 | www.virtualdub-fr.org || (build 2550/release)
Writing library : VirtualDubMod build 2550/release
Video
ID : 0
Format : MPEG-4 Visual
Format profile : Advanced Simple@L5
Format settings, BVOP : 1
Format settings, QPel : No
Format settings, GMC : No warppoints
Format settings, Matrix : Custom
Codec ID : XVID
Codec ID/Hint : XviD
Duration : 44mn 43s
Bit rate : 1 362 Kbps
Width : 640 pixels
Height : 368 pixels
Display aspect ratio : 1.739
Frame rate : 25.000 fps
Color space : YUV
Chroma subsampling : 4:2:0
Bit depth : 8 bits
Scan type : Progressive
Compression mode : Lossy
Bits/(Pixel*Frame) : 0.231
Stream size : 436 MiB (87%)
Writing library : XviD 65
Audio
ID : 1
Format : AC-3
Format/Info : Audio Coding 3
Mode extension : CM (complete main)
Format settings, Endianness : Big
Codec ID : 2000
Duration : 44mn 43s
Bit rate mode : Constant
Bit rate : 192 Kbps
Channel count : 2 channels
Channel positions : Front: L R
Sampling rate : 48.0 KHz
Bit depth : 16 bits
Compression mode : Lossy
Stream size : 61.4 MiB (12%)
Alignment : Split accross interleaves
Interleave, duration : 40 ms (1.00 video frame)
Interleave, preload duration : 500 ms
picpicpicpicpic
Для увеличения картинки щелкните мышкой по превью

Этот торрент недоступен для скачивания без регистрации, однако доступен по публичной magnet-ссылке (источники с публичных трекеров). Перед использованием ссылки прочтите, пожалуйста Пользовательское соглашение, а также как можно дольше оставайтесь на раздаче! Для того, чтобы скачать сам торрент-файл (который видит больше источников), а также для того, чтобы поблагодарить релизера, вам необходимо зарегистрироваться. Если регистрироваться лень - вы можете также попробовать скачать релиз по нашим партнерским ссылкам ниже.

[underverse.su].t39203.torrent
Трекер: Зарегистрирован   [ 25.04.2014 09:02 ]  

Статус: проверено (by 90ytr90 at 28.04.2014 15:58)
Поблагодарили: пока никто не поблагодарил...
Тип торрента: публичный - доступные источники с открытых трекеров: 
Размер: 24,43 GB (занимает 5,58 DVDR, для записи нужно 6 болванок DVDR/RW)
 
 
Похожие темы
Форум Тема Автор Торрент Отв. Посл. сооб.
* xUSSR сериалы Кадетство [3 сезон / серии 01-70 (70)] (Валентин Козловский) [2007 г., драма, комедия, приключения, DVDRip] 90ytr90

0 | 1503

05.12.2013 12:49

* xUSSR сериалы Кадетство / Сезон:1 / Серии: 1-40 из 40 (Сергей Арланов, Дмитрий Меднов, Валентин Козловский) [2006 г., драма, комедия, приключения, DVDRip] konopic

0 | 305

25.04.2014 08:54

* xUSSR сериалы Кадетство / Сезоны 1-й,2-й,3-й / Серии: 19 - 160 из 160 (Сергей Арланов, Валентин Козловский, Павел Игнатов) [2006 - 2007, Драмеди, DVB] uzi2009

0 | 423

06.05.2014 19:19


Яндекс.Метрика powered by Sphinx


В Н И М А Н И Е
Сайт не распространяет и не хранит электронные версии произведений, а лишь бесплатно и без коммерческой выгоды (не требуя взамен платы,
SMS и т.д.) предоставляет доступ к создаваемому пользователями каталогу ссылок на торрент-файлы, которые содержат только списки хеш-сумм.
Убедительная просьба с жалобами обращаться напрямую к пользователю, разместившему торрент файл.

Вверх