Loading...
Error

47 ронинов / 47 Ronin (Карл Ринш) [2013 г., фэнтези, боевик, приключения, BDRip] Dub + Orignial + Sub (Rus,Eng) HQ Underverse

Статистика раздачи
Размер:  2,17 GB   |    Зарегистрирован:  2 года 7 месяцев   |    Скачан:  41 раз
Сидов:  1  |  0 KB/s  ]   Личеров:  0  |  0 KB/s  ]

* - сиды/пиры с внешних источников

   
 
Автор Сообщение

HQ Underverse 

25-Апр-2014 09:01

47 ронинов / 47 Ronin


Год выпуска: 2013
Жанр: фэнтези, боевик, приключения
Страна: США
Режиссер: Карл Ринш
В ролях: Киану Ривз, Хироюки Санада, Ко Шибасаки, Таданобу Асано, Мин Танака, Джин Аканиши, Масаёси Ханеда, Хироси Согабэ, Такато Йонемото, Хироси Ямада
Сюжет фильма:
Таинственный странник, преданный всеми, проданный в рабство, избранный судьбой вершить месть, станет одним из 47 воинов, бросивших вызов смерти. Явившись из другого мира, он восстанет против темных сил, чтобы защитить свою запретную любовь.

  • Мировая премьера: 6 декабря 2013
  • Российская премьера: 1 января 2014, «UPI» 3D

|
Качество видео: BDRip

Продолжительность: 01:58:43
Формат: avi
Видео: XviD, 720x304, 2161 kbps
Аудио #1: русский, дублированный [лицензия], AC3 5.1, 448 kbps
Аудио #2: английский, оригинал, AC3 5.1, 448 kbps (отдельным файлом: здесь)
Субтитры #1: внешние, SRT, английский
Субтитры #2: внешние, SRT, русский

Код:

General
Complete name                    : Z:\windoza-share\47 ронинов\47.Ronin.2013.BDRip.XviD.AC3.Rus.D.HQ.Underverse.avi
Format                           : AVI
Format/Info                      : Audio Video Interleave
Format profile                   : OpenDML
File size                        : 2.17 GiB
Duration                         : 1h 58mn
Overall bit rate                 : 2 621 Kbps
Writing application              : VirtualDubMod 1.5.10.2 (build 2542/release)
Writing library                  : VirtualDubMod build 2542/release

Video
ID                               : 0
Format                           : MPEG-4 Visual
Format profile                   : Streaming Video@L1
Format settings, BVOP            : Yes
Format settings, QPel            : No
Format settings, GMC             : No warppoints
Format settings, Matrix          : Custom
Muxing mode                      : Packed bitstream
Codec ID                         : XVID
Codec ID/Hint                    : XviD
Duration                         : 1h 58mn
Bit rate                         : 2 162 Kbps
Width                            : 720 pixels
Height                           : 304 pixels
Display aspect ratio             : 2.35
Frame rate                       : 23.976 fps
Resolution                       : 24 bits
Colorimetry                      : 4:2:0
Scan type                        : Progressive
Bits/(Pixel*Frame)               : 0.412
Stream size                      : 1.79 GiB (82%)
Writing library                  : XviD 64

Audio
ID                               : 1
Format                           : AC-3
Format/Info                      : Audio Coding 3
Codec ID                         : 2000
Duration                         : 1h 58mn
Bit rate mode                    : Constant
Bit rate                         : 448 Kbps
Channel(s)                       : 6 channels
Channel positions                : Front: L C R, Surround: L R, LFE
Sampling rate                    : 48.0 KHz
Stream size                      : 380 MiB (17%)
Alignment                        : Split accross interleaves
Interleave, duration             : 42 ms (1.00 video frame)
Interleave, preload duration     : 500 ms

General
Complete name                    : Z:\windoza-share\47 ронинов\47.Ronin.2013.BDRip.XviD.AC3.Rus.D.HQ.Underverse.ENG.ac3
Format                           : AC-3
Format/Info                      : Audio Coding 3
File size                        : 306 MiB
Duration                         : 1h 35mn
Overall bit rate                 : 448 Kbps

Audio
Format                           : AC-3
Format/Info                      : Audio Coding 3
Duration                         : 1h 35mn
Bit rate mode                    : Constant
Bit rate                         : 448 Kbps
Channel(s)                       : 6 channels
Channel positions                : Front: L C R, Surround: L R, LFE
Sampling rate                    : 48.0 KHz
Stream size                      : 306 MiB (100%)

Релиз группы:

picpicpic
Для увеличения картинки щелкните мышкой по превью

Этот торрент недоступен для скачивания без регистрации, однако доступен по публичной magnet-ссылке (источники с публичных трекеров). Перед использованием ссылки прочтите, пожалуйста Пользовательское соглашение, а также как можно дольше оставайтесь на раздаче! Для того, чтобы скачать сам торрент-файл (который видит больше источников), а также для того, чтобы поблагодарить релизера, вам необходимо зарегистрироваться. Если регистрироваться лень - вы можете также попробовать скачать релиз по нашим партнерским ссылкам ниже.

[underverse.su].t39202.torrent
Трекер: Зарегистрирован   [ 25.04.2014 09:01 ]  

Статус: проверено (by HQ Underverse at 25.04.2014 09:01)
Поблагодарили: 4 человека
Тип торрента: публичный - доступные источники с открытых трекеров: 
Размер: 2,17 GB (занимает 1/2 DVDR, для записи нужно 1 болванка DVDR/RW)
 
 
Похожие темы
Форум Тема Автор Торрент Отв. Посл. сооб.
Зарубежное кино [DVDRip, Low-Res HDRip, и т.д.] 47 ронинов / 47 Ronin (Карл Ринш / Carl Rinsch) [2013 г., фэнтези, боевик, приключения, HDRip] Dub 90ytr90
15 | 2

0 | 359

5

22.04.2014 15:38

Зарубежное кино [DVDRip, Low-Res HDRip, и т.д.] 47 ронинов / 47 Ronin (Карл Ринш / Carl Rinsch) [2013 г., фэнтези, боевик, приключения, BDRip-AVC] Dub + Original (Eng) + Subs 90ytr90
7 | 1

0 | 461

8

24.04.2014 14:53

Зарубежное кино [DVDRip, Low-Res HDRip, и т.д.] 47 ронинов / 47 Ronin (Карл Ринш / Carl Rinsch) [2013 г., фэнтези, боевик, приключения, BDRip-AVC] Dub + Sub (Rus, Eng) 90ytr90
0 | 2

0 | 418

5

24.04.2014 15:03

Зарубежное кино [DVDRip, Low-Res HDRip, и т.д.] 47 ронинов / 47 Ronin (Карл Ринш / Carl Rinsch) [2013 г., фэнтези, боевик, приключения, HDRip] Dub 90ytr90
26 | 0

0 | 655

23

24.04.2014 16:17

Зарубежное кино [DVD / HDDVD / BD / Remux] 47 ронинов / 47 Ronin (Карл Ринш / Carl Rinsch) [2013 г., фэнтези, боевик, приключения, BD 1080p] Dub + Original (Eng) + Subs 90ytr90
0 | 0

0 | 453

4

22.04.2014 15:13

Зарубежное кино [HDDVDRip / BDRip / WEB-DL / HDTV 1080/720р] 47 ронинов / 47 Ronin (Карл Ринш / Carl Rinsch) [2013 г., фэнтези, боевик, приключения, BDRip 720p] Dub + Original (Eng) + Sub (Rus, Eng) 90ytr90
6 | 0

0 | 465

26

24.04.2014 14:39


Яндекс.Метрика powered by Sphinx


В Н И М А Н И Е
Сайт не распространяет и не хранит электронные версии произведений, а лишь бесплатно и без коммерческой выгоды (не требуя взамен платы,
SMS и т.д.) предоставляет доступ к создаваемому пользователями каталогу ссылок на торрент-файлы, которые содержат только списки хеш-сумм.
Убедительная просьба с жалобами обращаться напрямую к пользователю, разместившему торрент файл.

Вверх