Loading...
Error

Кадетство / Сезон:1 / Серии: 1-40 из 40 (Сергей Арланов, Дмитрий Меднов, Валентин Козловский) [2006 г., драма, комедия, приключения, DVDRip]

 
Автор Сообщение

konopic Пол:Муж

25-Апр-2014 08:54

Кадетство


Год выпуска: 2006
Жанр: драма, комедия, приключения
Страна: Россия, "Киноконстанта"
Режиссер: Сергей Арланов, Дмитрий Меднов, Валентин Козловский
В ролях: Александр Головин, Иван Добронравов, Борис Корчевников, Аристарх Венес, Арутр Сопельник, Павел Бессонов, Кирилл Емельянов, Александр Баринов, Владимир Стеклов, Вадим Андреев, Сергей Жолобов, Георгий Мартиросян, Александр Пороховщиков, Елена Захарова, Виталий Абдулов, Серегей Коноплев, Борис Лифанов, Владимир Павленко, Ольга Солодухина
Сюжет фильма:
Мальчишки четырнадцати лет оказываются в Суворовском училище — кто-то благодаря семейной традиции, кто-то ради высоких идеалов, а кто-то даже не по собственной воле. Поступив в Суворовское, ребята поначалу не представляют всей степени нагрузки, а главное — ответственности, которая окажет глубокое влияние на их последующую жизнь.
Издавна, начиная с 18 века, из стен кадетских корпусов выходили благородные офицеры, цвет нации, защитники Отечества, опора и гордость высшего общества, — это были элитные заведения, где всегда было почетно и очень трудно учиться. Но свою избранность наши суворовцы начинают осознавать не сразу. С первых дней офицеры-наставники приучают их к жестокому армейскому режиму во всем — от учебы до тренировок. «Школой выживания» называют военные обучение своих преемников. Постепенно суворовцам открываются негласные законы чести, глубина и непрерывность традиции, они становятся одной семьей, мужают, закаляя волю и характер.
У каждого из них — своя судьба, заветная мечта, первая любовь… Их поддерживают, за них переживают родственники и друзья. Не все из этих мальчишек станут военными в будущем — да это и не нужно. Главное, что все они — суворовцы, парни одной семьи, на которых можно и нужно положиться.
Качество видео: DVDRip

Продолжительность: 40 x ~ 00:44:00
Формат: AVI
Видео: 640x368, 25 fps, XviD MPEG-4 ~1120 kbps avg, 0.19 bit/pixel
Аудио: AC-3, 48 kHz, 6 ch, 448 kbps avg

Код:

General
Complete name : E:\Kadetstvo.1.sezon.DVDRip\Kadetstvo.02.seriya.DVDRip.avi
Format : AVI
Format/Info : Audio Video Interleave
File size : 501 MiB
Duration : 44mn 20s
Overall bit rate : 1 580 Kbps
Writing application : VirtualDubMod 1.5.10.3 | www.virtualdub-fr.org || (build 2550/release)
Writing library : VirtualDubMod build 2550/release
Video
ID : 0
Format : MPEG-4 Visual
Format profile : Advanced Simple@L5
Format settings, BVOP : 1
Format settings, QPel : No
Format settings, GMC : No warppoints
Format settings, Matrix : Custom
Codec ID : XVID
Codec ID/Hint : XviD
Duration : 44mn 20s
Bit rate : 1 122 Kbps
Width : 640 pixels
Height : 368 pixels
Display aspect ratio : 1.739
Frame rate : 25.000 fps
Color space : YUV
Chroma subsampling : 4:2:0
Bit depth : 8 bits
Scan type : Progressive
Compression mode : Lossy
Bits/(Pixel*Frame) : 0.191
Stream size : 356 MiB (71%)
Writing library : XviD 65
Audio
ID : 1
Format : AC-3
Format/Info : Audio Coding 3
Mode extension : CM (complete main)
Format settings, Endianness : Big
Codec ID : 2000
Duration : 44mn 20s
Bit rate mode : Constant
Bit rate : 448 Kbps
Channel count : 6 channels
Channel positions : Front: L C R, Side: L R, LFE
Sampling rate : 48.0 KHz
Bit depth : 16 bits
Compression mode : Lossy
Stream size : 142 MiB (28%)
Alignment : Split accross interleaves
Interleave, duration : 40 ms (1.00 video frame)
Interleave, preload duration : 500 ms
picpicpicpicpic
Для увеличения картинки щелкните мышкой по превью
[underverse.su].t39201.torrent
Трекер: Не зарегистрирован

Скачать

52 KB

Добавлен: 25.04.2014 08:51
Скачано: 0 раз  [ Список скачавших ]
   
 
Похожие темы
Форум Тема Автор Торрент Отв. Посл. сооб.
* xUSSR сериалы Кадетство [3 сезон / серии 01-70 (70)] (Валентин Козловский) [2007 г., драма, комедия, приключения, DVDRip] 90ytr90

0 | 1500

05.12.2013 12:49

xUSSR сериалы Кадетство / Сезон:2 / Серии: 1-50 из 50 (Валентин Козловский) [2007 г., драма, комедия, приключения, DVDRip] konopic
8 | 1

0 | 613

2

25.04.2014 09:02

* xUSSR сериалы Кадетство / Сезоны 1-й,2-й,3-й / Серии: 19 - 160 из 160 (Сергей Арланов, Валентин Козловский, Павел Игнатов) [2006 - 2007, Драмеди, DVB] uzi2009

0 | 422

06.05.2014 19:19


Яндекс.Метрика powered by Sphinx


В Н И М А Н И Е
Сайт не распространяет и не хранит электронные версии произведений, а лишь бесплатно и без коммерческой выгоды (не требуя взамен платы,
SMS и т.д.) предоставляет доступ к создаваемому пользователями каталогу ссылок на торрент-файлы, которые содержат только списки хеш-сумм.
Убедительная просьба с жалобами обращаться напрямую к пользователю, разместившему торрент файл.

Вверх