Loading...
Error

Идеальный брак [1-4 из 4] (Егор Анашкин) [2013 г., мелодрама, HDTVRip]

Статистика раздачи
Размер:  4,83 GB   |    Зарегистрирован:  2 года 7 месяцев   |    Скачан:  8 раз

Полного источника не было: 8 месяцев

Сидов:  0  |  0 KB/s  ]   Личеров:  0  |  0 KB/s  ]

* - сиды/пиры с внешних источников

   
 
Автор Сообщение

konopic Пол:Муж

22-Апр-2014 15:28

Идеальный брак


Год выпуска: 2013
Жанр: мелодрама
Страна: Россия, "Всемирные российские студии"
Режиссер: Егор Анашкин
В ролях: Мария Машкова, Сергей Перегудов, Анна Уколова, Евгения Дмитриева, Дарья Сагалова, Максим Виторган, Ян Цапник, Анна Гуляренко, Лариса Логинова, Артём Волков
Сюжет фильма:
Наталья Феоктистова в свои тридцать шесть может гордиться собой. Она успешный маркетолог, заместитель руководителя отдела в крупной фирме. У нее отличная зарплата, собственная квартира, прекрасная внешность... Не хватает только семьи. Наташа хочет ребенка, но жених девушки и потенциальный отец малыша сбежал прямо из-под венца! И тогда героиня решает родить ребенка без замужества, без романа и без лишних проблем. Концепция Натальи проста: завести роман без обязательств и тайком забеременеть. А потом, пока не обозначился живот, быстренько расстаться с бойфрендом и... жить долго и счастливо, растить ребенка и наслаждаться жизнью.
Качество видео: HDTVRip

Продолжительность: 4 x ~ 00:45:00
Формат: AVI
Видео: 720x400 (1.80:1), 25 fps, XviD build 50 ~1548 kbps avg, 0.22 bit/pixel
Аудио: 48 kHz, AC3 Dolby Digital, 2/0 (L,R) ch, ~192.00 kbps avg

Код:

General
Complete name : E:\раздачи\Idealnyy.brak .2013.HDTVRip.RG.Russkie.serialy.&.Files-x\Idealnyy.brak .01.seriya.2013.HDTVRip.RG.Russkie.serialy.&.Files-x.avi
Format : AVI
Format/Info : Audio Video Interleave
File size : 601 MiB
Duration : 49mn 26s
Overall bit rate : 1 699 Kbps
Writing application : VirtualDubMod 1.5.10.3 | www.virtualdub-fr.org || (build 2550/release)
Writing library : VirtualDubMod build 2550/release
Video
ID : 0
Format : MPEG-4 Visual
Format profile : Advanced Simple@L5
Format settings, BVOP : Yes
Format settings, QPel : No
Format settings, GMC : No warppoints
Format settings, Matrix : Default (H.263)
Codec ID : XVID
Codec ID/Hint : XviD
Duration : 49mn 26s
Bit rate : 1 497 Kbps
Width : 720 pixels
Height : 400 pixels
Display aspect ratio : 16:9
Frame rate : 25.000 fps
Color space : YUV
Chroma subsampling : 4:2:0
Bit depth : 8 bits
Scan type : Progressive
Compression mode : Lossy
Bits/(Pixel*Frame) : 0.208
Stream size : 529 MiB (88%)
Writing library : XviD 1.2.1 (UTC 2008-12-04)
Audio
ID : 1
Format : AC-3
Format/Info : Audio Coding 3
Mode extension : CM (complete main)
Format settings, Endianness : Big
Codec ID : 2000
Duration : 49mn 26s
Bit rate mode : Constant
Bit rate : 192 Kbps
Channel count : 2 channels
Channel positions : Front: L R
Sampling rate : 48.0 KHz
Bit depth : 16 bits
Compression mode : Lossy
Stream size : 67.9 MiB (11%)
Alignment : Split accross interleaves
Interleave, duration : 40 ms (1.00 video frame)
Interleave, preload duration : 500 ms
picpicpicpic
Для увеличения картинки щелкните мышкой по превью

Этот торрент недоступен для скачивания без регистрации, однако доступен по публичной magnet-ссылке (источники с публичных трекеров). Перед использованием ссылки прочтите, пожалуйста Пользовательское соглашение, а также как можно дольше оставайтесь на раздаче! Для того, чтобы скачать сам торрент-файл (который видит больше источников), а также для того, чтобы поблагодарить релизера, вам необходимо зарегистрироваться. Если регистрироваться лень - вы можете также попробовать скачать релиз по нашим партнерским ссылкам ниже.

[underverse.su].t38995.torrent
Трекер: Зарегистрирован   [ 22.04.2014 15:28 ]  

Статус: проверено (by 90ytr90 at 22.04.2014 17:39)
Поблагодарили: пока никто не поблагодарил...
Тип торрента: публичный - доступные источники с открытых трекеров: 
Размер: 4,83 GB (занимает 1,1 DVDR, для записи нужно 2 болванки DVDR/RW)
 
 
Похожие темы
Форум Тема Автор Торрент Отв. Посл. сооб.
T Зарубежное кино [DVDRip, Low-Res HDRip, и т.д.] Идеальный мужчина / Un homme ideal (Ян Гозлан / Yann Gozlan) [2015 г., триллер, HDRip] MVO (чистый звук) + Original (Fre) + Sub (Eng) 90ytr90
555 | 16

1 | 370

6

18.09.2016 18:02

Зарубежное кино [DVDRip, Low-Res HDRip, и т.д.] Идеальный студент / The Perfect Student (Майкл Фейфер) [2011 г., триллер, криминал, детектив, DVDRip] MVO + Original RG NewCinema
0 | 0

0 | 1591

30

26.10.2012 08:22

Зарубежное кино [DVDRip, Low-Res HDRip, и т.д.] Идеальный голос / Pitch Perfect (Джейсон Мур) [2012 г., комедия, музыка, HDRip] VO (zamez) 90ytr90
1 | 0

2 | 528

3

22.12.2012 20:15

Зарубежное кино [DVDRip, Low-Res HDRip, и т.д.] Идеальный голос / Pitch Perfect (Джейсон Мур) [2012 г., комедия, музыка, HDRip] VO (zamez) + Original 90ytr90
8 | 1

0 | 685

15

23.12.2012 08:25

Зарубежное кино [DVDRip, Low-Res HDRip, и т.д.] Идеальный голос / Pitch Perfect (Джейсон Мур / Jason Moore) [2012, комедия, музыка, HDRip] VO [zamez] Garnett
41 | 0

0 | 1320

7

08.01.2013 11:48

Зарубежное кино [DVDRip, Low-Res HDRip, и т.д.] Идеальный голос / Pitch Perfect (Джейсон Мур / Jason Moore) [2012 г., мелодрама, комедия, музыка, HDRip] Dub + Original Gaarochi
3 | 0

0 | 1223

19

09.05.2013 19:30

Зарубежное кино [DVDRip, Low-Res HDRip, и т.д.] Идеальный голос / Pitch Perfect ( Джейсон Мур / Jason Moore) [2013 г., мелодрама, комедия, музыка, HDRip] Dub Gaarochi
1 | 0

0 | 913

24

09.05.2013 19:56

Зарубежное кино [DVDRip, Low-Res HDRip, и т.д.] Идеальный конец / A Perfect Ending (Николь Конн) [2012 г., драма, DVDRip] VO Паукан
4 | 0

0 | 896

29

05.02.2014 15:48

Зарубежное кино [DVDRip, Low-Res HDRip, и т.д.] Идеальный шторм / The Perfect Storm (Вольфганг Петерсен) [2000 г., боевик, триллер, драма, приключения, HDRip] Dub ultarasbarcelona
17 | 0

0 | 648

14

25.04.2015 16:41

Зарубежное кино [DVDRip, Low-Res HDRip, и т.д.] Идеальный голос 2 / Pitch Perfect 2 (Элизабет Бэнкс) [2015 г., комедия, музыка, WEBRip] MVO makkol
16 | 0

0 | 565

17

18.07.2015 15:21


Яндекс.Метрика powered by Sphinx


В Н И М А Н И Е
Сайт не распространяет и не хранит электронные версии произведений, а лишь бесплатно и без коммерческой выгоды (не требуя взамен платы,
SMS и т.д.) предоставляет доступ к создаваемому пользователями каталогу ссылок на торрент-файлы, которые содержат только списки хеш-сумм.
Убедительная просьба с жалобами обращаться напрямую к пользователю, разместившему торрент файл.

Вверх