Loading...
Error

Дураки умирают по пятницам ( Рудольф Фрунтов) [1990 г., боевик, криминал, DVDRip]

Статистика раздачи
Размер:  1,46 GB   |    Зарегистрирован:  2 года 7 месяцев   |    Скачан:  9 раз

Полного источника не было: 4 часа

Сидов:  0  |  0 KB/s  ]   Личеров:  0  |  0 KB/s  ]

* - сиды/пиры с внешних источников

   
 
Автор Сообщение

konopic Пол:Муж

22-Апр-2014 11:08

Дураки умирают по пятницам


Год выпуска: 1990
Жанр: боевик, криминал
Страна: СССР , Болгария , Киностудия БОЯНА, Болгария Фильм, Госкино, Кинофонд СССР, Паритет, Сектор-Ф
Режиссер: Рудольф Фрунтов
В ролях: Василий Мищенко, Оксана Фандера, Игорь Янковский, Маргарита Сергеечева, Михаил Козаков, Римма Маркова, Андрей Гусев, Сергей Чурбаков, Наталья Позднякова, Евгений Дегтяренко...
Сюжет фильма:
Офицер милиции Андрей выходит из тюрьмы, где провел три года, осужденный по ложному обвинению. Придя в гости к старому другу, он неожиданно натыкается на его труп. Приходится вновь спасаться от милиции.
События нарастают стремительно. Андрей понимает, что за ним идет настоящая охота. Кому опять понадобилась его жизнь и свобода? На этот вопрос не может ответить ни его старый друг, майор милиции, ни Яна — внезапно ворвавшаяся в его жизнь любовь и надежда…

Качество видео: DVDRip

Продолжительность: 01:30:44
Формат: AVI
Видео: 688x512 (4:3), 25 fps, XviD ~ 1844 kbps avg, 0.209 bit/pixel
Аудио: 48 kHz, Dolby Digital AC3 5.1, 448 kbps

Код:

Общее
Полное имя : Duraki.umirayut.po.pyatnicam.1990.DVDRip_[New-team]_by_AVP_Studio.avi
Формат : AVI
Формат/Информация : Audio Video Interleave
Размер файла : 1,46 Гбайт
Продолжительность : 1 ч. 30 м.
Общий поток : 2302 Кбит/сек
Программа кодирования : VirtualDubModRus 1.5.10.2 (build 2542/release)
Библиотека кодирования : VirtualDubMod build 2542/release

Видео
Идентификатор : 0
Формат : MPEG-4 Visual
Профиль формата : Advanced Simple@L5
Параметр BVOP формата : 1
Параметр QPel формата : Нет
Параметр GMC формата : Без точки перехода
Параметр матрицы формата : Выборочная
Идентификатор кодека : XVID
Идентификатор кодека/Подсказка : XviD
Продолжительность : 1 ч. 30 м.
Битрейт : 1844 Кбит/сек
Ширина : 688 пикселей
Высота : 512 пикселей
Соотношение сторон : 4:3
Частота кадров : 25,000 кадров/сек
Цветовое пространство : YUV
Субдискретизация насыщенности : 4:2:0
Битовая глубина : 8 бит
Тип развёртки : Прогрессивная
Метод сжатия : С потерями
Бит/(Пиксели*Кадры) : 0.209
Размер потока : 1,17 Гбайт (80%)
Библиотека кодирования : XviD 73

Аудио
Идентификатор : 1
Формат : AC-3
Формат/Информация : Audio Coding 3
Расширение режима : CM (complete main)
Параметр Endianness формата : Big
Идентификатор кодека : 2000
Продолжительность : 1 ч. 30 м.
Вид битрейта : Постоянный
Битрейт : 448 Кбит/сек
Каналы : 6 каналов
Расположение каналов : Front: L C R, Side: L R, LFE
Частота : 48,0 КГц
Битовая глубина : 16 бит
Метод сжатия : С потерями
Размер потока : 291 Мбайт (19%)
Выравнивание : Разделение по промежуткам
Продолжительность промежутка : 40 мс. (1,00 видеокадр)
Время предзагрузки промежутка : 500 мс
Семпл: http://sendfile.su/969782

picpicpicpic
Для увеличения картинки щелкните мышкой по превью

Этот торрент недоступен для скачивания без регистрации, однако доступен по публичной magnet-ссылке (источники с публичных трекеров). Перед использованием ссылки прочтите, пожалуйста Пользовательское соглашение, а также как можно дольше оставайтесь на раздаче! Для того, чтобы скачать сам торрент-файл (который видит больше источников), а также для того, чтобы поблагодарить релизера, вам необходимо зарегистрироваться. Если регистрироваться лень - вы можете также попробовать скачать релиз по нашим партнерским ссылкам ниже.

[underverse.su].t38966.torrent
Трекер: Зарегистрирован   [ 22.04.2014 11:08 ]  

Статус: проверено (by 90ytr90 at 22.04.2014 18:41)
Поблагодарили: 1 человек
Тип торрента: публичный - доступные источники с открытых трекеров: 
Размер: 1,46 GB (занимает 1/3 DVDR, для записи нужно 1 болванка DVDR/RW)
 
 

Яндекс.Метрика powered by Sphinx


В Н И М А Н И Е
Сайт не распространяет и не хранит электронные версии произведений, а лишь бесплатно и без коммерческой выгоды (не требуя взамен платы,
SMS и т.д.) предоставляет доступ к создаваемому пользователями каталогу ссылок на торрент-файлы, которые содержат только списки хеш-сумм.
Убедительная просьба с жалобами обращаться напрямую к пользователю, разместившему торрент файл.

Вверх