Loading...
Error

Инквизитор (1-12 серии из 12) (Юрий Мороз) [2014 г., Детектив, Триллер, SatRip)

Статистика раздачи
Размер:  6,82 GB   |    Зарегистрирован:  2 года 7 месяцев   |    Скачан:  55 раз

Полного источника не было: 1 месяц 25 дней

Сидов:  0  |  0 KB/s  ]   Личеров:  0  |  0 KB/s  ]

* - сиды/пиры с внешних источников

   
 
Автор Сообщение

nemos Пол:Муж

22-Апр-2014 06:21



Год выпуска: 2014
Жанр: Детектив, Триллер
Страна: Россия
Режиссер: Юрий Мороз
В ролях: Константин Лавроненко, Виктор Вержбицкий, Виктория Исакова, Андрей Смоляков, Александр Лыков, Николай Козак, Дарья Мороз, Александр Голубев, Дмитрий Астрахан, Алексей Кирсанов, Александр Числов, Максим Стоянов, Андрей Межулис, Мария Климова (II)
Качество видео: SatRip

Продолжительность: 00:50:57 серия
Формат: AVI
Видео: XviD, 720x384, 1500 kbps
Аудио: русский, MP3 2.0, 192 kbps

Провинциальный городок на западной границе России потрясает зловещая череда убийств. Некто с жестокостью средневекового инквизитора отправляет на тот свет влиятельных людей, оставляя загадочные послания на латыни. Кто следующий – Инквизитор подсказывает сам, но шанса на спасение не дает. Кажется, что Инквизитор может предугадать каждый шаг следствия, однако петербургская сыщица Наталья Серебрянская готова принять брошенный вызов…

Код:

D:\Фильмы (роздача)\Инквизитор (2014)\Инквизитор.(01.seriya).2014.XviD.SATRip.by.simka.avi
   General
      Complete name : D:\Фильмы (роздача)\Инквизитор (2014)\Инквизитор.(01.seriya).2014.XviD.SATRip.by.simka.avi
      Format : AVI
      Format/Info : Audio Video Interleave
      File size : 620 MiB
      Duration : 50mn 57s
      Overall bit rate : 1 701 Kbps
      Writing application : VirtualDubModRus 1.5.10.2 (build 2542/release)
      Writing library : VirtualDubMod build 2542/release
   Video #0
      ID : 0
      Format : MPEG-4 Visual
      Format profile : Advanced Simple@L5
      Format settings, BVOP : 1
      Format settings, QPel : No
      Format settings, GMC : No warppoints
      Format settings, Matrix : Default (MPEG)
      Codec ID : XVID
      Codec ID/Hint : XviD
      Duration : 50mn 57s
      Bit rate : 1 500 Kbps
      Width : 720 pixels
      Height : 384 pixels
      Display aspect ratio : 1.85:1
      Frame rate : 25.000 fps
      Color space : YUV
      Chroma subsampling : 4:2:0
      Bit depth : 8 bits
      Scan type : Progressive
      Compression mode : Lossy
      Bits/(Pixel*Frame) : 0.217
      Stream size : 547 MiB (88%)
      Writing library : XviD 1.2.1 (UTC 2008-12-04)
   Audio #1
      ID : 1
      Format : MPEG Audio
      Format version : Version 1
      Format profile : Layer 3
      Mode : Joint stereo
      Mode extension : MS Stereo
      Codec ID : 55
      Codec ID/Hint : MP3
      Duration : 50mn 57s
      Bit rate mode : Constant
      Bit rate : 192 Kbps
      Channel(s) : 2 channels
      Sampling rate : 48.0 KHz
      Compression mode : Lossy
      Stream size : 70.0 MiB (11%)
      Alignment : Aligned on interleaves
      Interleave, duration : 40 ms (1.00 video frame)
      Interleave, preload duration : 504 ms
      Writing library : LAME3.99r
      Encoding settings : -m j -V 4 -q 2 -lowpass 18.6 -b 192
picpicpicpicpicpicpicpicpicpicpicpicpicpicpicpicpicpicpic
Для увеличения картинки щелкните мышкой по превью

Этот торрент недоступен для скачивания без регистрации, однако доступен по публичной magnet-ссылке (источники с публичных трекеров). Перед использованием ссылки прочтите, пожалуйста Пользовательское соглашение, а также как можно дольше оставайтесь на раздаче! Для того, чтобы скачать сам торрент-файл (который видит больше источников), а также для того, чтобы поблагодарить релизера, вам необходимо зарегистрироваться. Если регистрироваться лень - вы можете также попробовать скачать релиз по нашим партнерским ссылкам ниже.

[underverse.su].t39220.torrent
Трекер: Зарегистрирован   [ 25.04.2014 15:19 ]  

Статус: проверено (by Паукан at 28.04.2014 07:57)
Поблагодарили: 6 человек
Тип торрента: публичный - доступные источники с открытых трекеров: 
Размер: 6,82 GB (занимает 1,56 DVDR, для записи нужно 2 болванки DVDR/RW)
 
 


Последний раз редактировалось: nemos (06.11.2014 08:28), всего редактировалось 4 раз(а)

nemos Пол:Муж

22-Апр-2014 20:26

Внимание! Данная раздача обновлена 12 серий .

qwest32 

09-Май-2014 03:43

Как сериал?

nemos Пол:Муж

04-Июн-2015 08:24

qwest32 писал(а):

Как сериал?
Кому как. Обычный детектив.

Яндекс.Метрика powered by Sphinx


В Н И М А Н И Е
Сайт не распространяет и не хранит электронные версии произведений, а лишь бесплатно и без коммерческой выгоды (не требуя взамен платы,
SMS и т.д.) предоставляет доступ к создаваемому пользователями каталогу ссылок на торрент-файлы, которые содержат только списки хеш-сумм.
Убедительная просьба с жалобами обращаться напрямую к пользователю, разместившему торрент файл.

Вверх