Loading...
Error

Бессонница / Серии: 1-16 (16) (Андрей Мармонтов) [2013 г., боевик, IPTVRip ]

Статистика раздачи
Размер:  8,93 GB   |    Зарегистрирован:  2 года 7 месяцев   |    Скачан:  14 раз

Полного источника не было: 2 года

Сидов:  0  |  0 KB/s  ]   Личеров:  0  |  0 KB/s  ]

* - сиды/пиры с внешних источников

   
 
Автор Сообщение

nemos Пол:Муж

19-Апр-2014 20:06

Бессонница


Год выпуска: 2013
Жанр: боевик
Страна: Россия
Режиссер: Андрей Мармонтов
В ролях: Юлия Юрченко, Александр Константинов, Анна Антонова, Мачей Штур, Эдуард Флёров, Владислав Павлов, Максим Щеголев, Александр Сетейкин, Алексей Матошин, Вероника Вернадская
Сюжет фильма:
Без сна человеческий организм не может существовать бесконечно. В одном из подпольных казино, больше похожем на тайный клуб, играют только самые богатые, самые влиятельные и… самые пресыщенные. Те, кто готов ставить целые состояния на красное, если это красное — кровь. Для них и был создан новый тотализатор, основанный на игре «Бессонница», который проводится всего раз в год. Клиенты казино, делая свои ставки, рискуют миллионами, но игроки рискуют гораздо большим.Из 10 игроков последний не заснувший и оставшийся в живых — победитель. И нельзя сказать, что участие в игре — дело полностью добровольное. Так, один из участников попадает в игру, нарушив закон. Задержавшие его полицейские дают ему право выбора: надолго оказаться в тюрьме или рискнуть и получить свободу.


Качество видео: IPTVRip

Продолжительность: 00:48:34 серия
Формат: AVI
Видео: XviD, 704х368, 1 613 kbps
Аудио: русский, MP3 2.0, 160kbps

Код:

D:\Фильмы (роздача)\Бессонница (2014)\бессонница_16.avi
   General
      Complete name : D:\Фильмы (роздача)\Бессонница (2014)\бессонница_16.avi
      Format : AVI
      Format/Info : Audio Video Interleave
      File size : 620 MiB
      Duration : 48mn 34s
      Overall bit rate : 1 786 Kbps
      Writing application : Lavf54.63.104
   Video #0
      ID : 0
      Format : xvid
      Codec ID : xvid
      Duration : 48mn 34s
      Bit rate : 1 613 Kbps
      Width : 704 pixels
      Height : 368 pixels
      Display aspect ratio : 1.913
      Frame rate : 25.000 fps
      Bits/(Pixel*Frame) : 0.249
      Stream size : 561 MiB (90%)
   Audio #1
      ID : 1
      Format : MPEG Audio
      Format version : Version 1
      Format profile : Layer 3
      Mode : Joint stereo
      Codec ID : 55
      Codec ID/Hint : MP3
      Duration : 48mn 32s
      Bit rate mode : Constant
      Bit rate : 160 Kbps
      Channel(s) : 2 channels
      Sampling rate : 44.1 KHz
      Compression mode : Lossy
      Stream size : 55.6 MiB (9%)
      Alignment : Aligned on interleaves
      Interleave, duration : 26 ms (0.65 video frame)
      Writing library : LAME3.99.5ЄЄЄЄЄЄЄЄЄЄ
picpicpicpicpicpicpicpicpicpicpicpicpicpicpic
Для увеличения картинки щелкните мышкой по превью

Этот торрент недоступен для скачивания без регистрации, однако доступен по публичной magnet-ссылке (источники с публичных трекеров). Перед использованием ссылки прочтите, пожалуйста Пользовательское соглашение, а также как можно дольше оставайтесь на раздаче! Для того, чтобы скачать сам торрент-файл (который видит больше источников), а также для того, чтобы поблагодарить релизера, вам необходимо зарегистрироваться. Если регистрироваться лень - вы можете также попробовать скачать релиз по нашим партнерским ссылкам ниже.

[underverse.su].t38880.torrent
Трекер: Зарегистрирован   [ 19.04.2014 20:06 ]  

Статус: проверено (by 90ytr90 at 19.04.2014 20:53)
Поблагодарили: 4 человека
Тип торрента: публичный - доступные источники с открытых трекеров: 
Размер: 8,93 GB (занимает 2,04 DVDR, для записи нужно 3 болванки DVDR/RW)
 
 

Яндекс.Метрика powered by Sphinx


В Н И М А Н И Е
Сайт не распространяет и не хранит электронные версии произведений, а лишь бесплатно и без коммерческой выгоды (не требуя взамен платы,
SMS и т.д.) предоставляет доступ к создаваемому пользователями каталогу ссылок на торрент-файлы, которые содержат только списки хеш-сумм.
Убедительная просьба с жалобами обращаться напрямую к пользователю, разместившему торрент файл.

Вверх