Loading...
Error

Микки: Однажды под Рождество / Mickey`s Once Upon a Christmas (Джан Фалкенштейн, Алекс Манн, Брэдли Рэймонд) [1999 г., мультфильм, фэнтези, комедия, семейный, WEB-DLRip] Dub

Статистика раздачи
Размер:  746 MB   |    Зарегистрирован:  2 года 7 месяцев   |    Скачан:  8 раз

Полного источника не было: 1 год 4 месяца

Сидов:  0  |  0 KB/s  ]   Личеров:  0  |  0 KB/s  ]

* - сиды/пиры с внешних источников

   
 
Автор Сообщение

deadmauvlad Пол:Муж

19-Апр-2014 08:24

Микки: Однажды под Рождество (видео) / Mickey`s Once Upon a Christmas
Год выпуска: 1999
Жанр: мультфильм, фэнтези, комедия, семейный
Режиссер: Джан Фалкенштейн, Алекс Манн, Брэдли Рэймонд
В ролях: Келси Грэммер, Уэйн Оллвэйн, Расси Тейлор, Тони Ансельмо, Дайан Мишель, Тресс МакНилл, Алан Янг, Билл Фармер, Кори Бертон, Шон Флемминг
Сюжет фильма:
Микки, Минни и их знаменитые друзья Гуфи, Дональд, Дейзи и Плуто собираются вместе, чтобы рассказать в трех удивительных историях о волшебстве Рождества.Мини и Микки расскажут о том, как однажды решили подарить друг другу незабываемое Рождество. Гуфи и Макс поделятся впечатлениями о своих рождественских приключениях, а еще о том, как к ним в гости пришел настоящий Санта Клаус.Племянники Дональда, Хьюи, Дьюи и Лун вспоминают те дни, когда они мечтали о наступлении Рождества каждый день, что, в конце концов, привело к веселой катастрофе.

  • Мировая премьера: 7 декабря 1999
  • Российская премьера: 7 декабря 1999


Качество видео: WEB-DLRip

Продолжительность: 01:05:53
Формат: AVI
Видео: XviD, 624x336 , 1446 kbps
Аудио: русский, дублированный [лицензия], MP3, 128 kbps 2ch

Код:

Общее
Полное имя                               : D:\Рипы выкладка [Deadmauvlad]\Рипы готовые\Mickey's.Once.Upon.Christmas.1999.WEB-DLRip.Rus.Deadmauvlad.avi
Формат                                   : AVI
Формат/Информация                        : Audio Video Interleave
Размер файла                             : 746 Мбайт
Продолжительность                        : 1 ч. 5 м.
Общий поток                              : 1584 Кбит/сек
Название фильма                          : Mickey's.Once.Upon.Christmas.1999.WEB-DLRip.Rus.Deadmauvlad
Режиссёр                                 : Deadmauvlad
Жанр                                     : Genre_00+
Программа кодирования                    : VirtualDubMod 1.5.10.3 | www.virtualdub-fr.org || (build 2550/release)
Формат оригинала/Имя                     : Мультфильм
Примечание                               : [Лицензия]

Видео
Идентификатор                            : 0
Формат                                   : MPEG-4 Visual
Профиль формата                          : Advanced Simple@L5
Параметр BVOP формата                    : 1
Параметр QPel формата                    : Нет
Параметр GMC формата                     : Без точки перехода
Параметр матрицы формата                 : Выборочная
Идентификатор кодека                     : XVID
Идентификатор кодека/Подсказка           : XviD
Продолжительность                        : 1 ч. 5 м.
Битрейт                                  : 1447 Кбит/сек
Ширина                                   : 624 пикселя
Высота                                   : 336 пикселей
Соотношение сторон                       : 1,85:1
Частота кадров                           : 23,976 кадра/сек
Цветовое пространство                    : YUV
Субдискретизация насыщенности            : 4:2:0
Битовая глубина                          : 8 бит
Тип развёртки                            : Прогрессивная
Метод сжатия                             : С потерями
Бит/(Пиксели*Кадры)                      : 0.288
Размер потока                            : 682 Мбайт (91%)
Библиотека кодирования                   : XviD 73

Аудио
Идентификатор                            : 1
Формат                                   : MPEG Audio
Версия формата                           : Version 1
Профиль формата                          : Layer 3
Идентификатор кодека                     : 55
Идентификатор кодека/Подсказка           : MP3
Продолжительность                        : 1 ч. 5 м.
Вид битрейта                             : Постоянный
Битрейт                                  : 128 Кбит/сек
Каналы                                   : 2 канала
Частота                                  : 48,0 КГц
Метод сжатия                             : С потерями
Размер потока                            : 60,2 Мбайт (8%)
Выравнивание                             : Соединение по промежуткам
Продолжительность промежутка             : 42  мс. (1,00 видеокадр)
Время предзагрузки промежутка            : 504  мс.
Библиотека кодирования                   : LAME3.99r
Настройки программы                      : -m s -V 4 -q 2 -lowpass 17 -b 128
Смысла делать DVDRip не вижу так как видео получится ужастным вот что было бы http://screenshotcomparison.com/comparison/70329
Семпл: http://multi-up.com/967433

picpicpicpic
Для увеличения картинки щелкните мышкой по превью

Этот торрент недоступен для скачивания без регистрации, однако доступен по публичной magnet-ссылке (источники с публичных трекеров). Перед использованием ссылки прочтите, пожалуйста Пользовательское соглашение, а также как можно дольше оставайтесь на раздаче! Для того, чтобы скачать сам торрент-файл (который видит больше источников), а также для того, чтобы поблагодарить релизера, вам необходимо зарегистрироваться. Если регистрироваться лень - вы можете также попробовать скачать релиз по нашим партнерским ссылкам ниже.

[underverse.su].t38851.torrent
Трекер: Зарегистрирован   [ 19.04.2014 08:24 ]  

Статус: проверено (by Паукан at 19.04.2014 08:31)
Поблагодарили: пока никто не поблагодарил...
Тип торрента: публичный - доступные источники с открытых трекеров: 
Размер: 746 MB (занимает 0,17 DVDR, для записи нужно 1 болванка DVDR/RW)
 
 


Последний раз редактировалось: deadmauvlad (19.04.2014 09:45), всего редактировалось 2 раз(а)

19-Апр-2014 08:31

Топик был перенесен из форума Зарубежное кино [DVDRip, Low-Res HDRip, и т.д.] в форум Зарубежные мультфильмы


Паукан
 

матроскин Пол:Муж

19-Апр-2014 09:23

Автор! а где у вас Постер вашего релиза?

Яндекс.Метрика powered by Sphinx


В Н И М А Н И Е
Сайт не распространяет и не хранит электронные версии произведений, а лишь бесплатно и без коммерческой выгоды (не требуя взамен платы,
SMS и т.д.) предоставляет доступ к создаваемому пользователями каталогу ссылок на торрент-файлы, которые содержат только списки хеш-сумм.
Убедительная просьба с жалобами обращаться напрямую к пользователю, разместившему торрент файл.

Вверх