Loading...
Error

Умник (1-16 серии из 16) (Тимур Алпатов) [2013 г., детектив, SatRip]

Статистика раздачи
Размер:  9,8 GB   |    Зарегистрирован:  2 года 7 месяцев   |    Скачан:  5 раз

Полного источника не было: 21 день

Сидов:  0  |  0 KB/s  ]   Личеров:  0  |  0 KB/s  ]

* - сиды/пиры с внешних источников

   
 
Автор Сообщение

nemos Пол:Муж

17-Апр-2014 19:30

Умник


Год выпуска: 2013
Жанр: детектив
Страна: Россия
Режиссер: Тимур Алпатов
В ролях: Александр Гордон, Екатерина Вуличенко, Мария Романова, Елена Санаева, Евгений Антропов, Мария Романова, Эдуард Флёров, Андрей Покатилов, Василий Брыков, Надежда Азоркина
Сюжет фильма:
Популярный писатель Страхов должен за две недели сдать очередной детектив в издательство. Следователь Женя Огарева вдохновляет писателя на новый роман. Как в прямом, так и в переносном смысле этого слова…


Качество видео: SatRip

Продолжительность: 00:50:27 серия
Формат: AVI
Видео: XviD, 720x400, 1500 kbps
Аудио: русский, MP3 2.0, 128 kbps

Код:

D:\Фильмы (роздача)\Umnik.SATRip\Umnik.01.SATRip.avi
   General
      Complete name : D:\Фильмы (роздача)\Umnik.SATRip\Umnik.01.SATRip.avi
      Format : AVI
      Format/Info : Audio Video Interleave
      File size : 591 MiB
      Duration : 50mn 27s
      Overall bit rate : 1 637 Kbps
      Writing application : VirtualDubMod 1.5.10.3 | www.virtualdub-fr.org || (build 2550/release)
      Writing library : VirtualDubMod build 2550/release
   Video #0
      ID : 0
      Format : MPEG-4 Visual
      Format profile : Advanced Simple@L5
      Format settings, BVOP : 2
      Format settings, QPel : No
      Format settings, GMC : No warppoints
      Format settings, Matrix : Default (H.263)
      Codec ID : XVID
      Codec ID/Hint : XviD
      Duration : 50mn 27s
      Bit rate : 1 500 Kbps
      Width : 720 pixels
      Height : 400 pixels
      Display aspect ratio : 16:9
      Frame rate : 25.000 fps
      Color space : YUV
      Chroma subsampling : 4:2:0
      Bit depth : 8 bits
      Scan type : Progressive
      Compression mode : Lossy
      Bits/(Pixel*Frame) : 0.208
      Stream size : 541 MiB (92%)
      Writing library : XviD 1.2.1 (UTC 2008-12-04)
   Audio #1
      ID : 1
      Format : MPEG Audio
      Format version : Version 1
      Format profile : Layer 3
      Mode : Joint stereo
      Mode extension : MS Stereo
      Codec ID : 55
      Codec ID/Hint : MP3
      Duration : 50mn 27s
      Bit rate mode : Constant
      Bit rate : 128 Kbps
      Channel(s) : 2 channels
      Sampling rate : 48.0 KHz
      Compression mode : Lossy
      Stream size : 46.2 MiB (8%)
      Alignment : Aligned on interleaves
      Interleave, duration : 40 ms (1.00 video frame)
      Interleave, preload duration : 504 ms
      Writing library : LAME3.99r
      Encoding settings : -m j -V 4 -q 2 -lowpass 17 -b 128
picpicpicpicpicpicpicpicpicpicpic
Для увеличения картинки щелкните мышкой по превью

Этот торрент недоступен для скачивания без регистрации, однако доступен по публичной magnet-ссылке (источники с публичных трекеров). Перед использованием ссылки прочтите, пожалуйста Пользовательское соглашение, а также как можно дольше оставайтесь на раздаче! Для того, чтобы скачать сам торрент-файл (который видит больше источников), а также для того, чтобы поблагодарить релизера, вам необходимо зарегистрироваться. Если регистрироваться лень - вы можете также попробовать скачать релиз по нашим партнерским ссылкам ниже.

[underverse.su].t39519.torrent
Трекер: Зарегистрирован   [ 30.04.2014 15:08 ]  

Статус: проверено (by 90ytr90 at 02.05.2014 10:31)
Поблагодарили: 1 человек
Тип торрента: публичный - доступные источники с открытых трекеров: 
Размер: 9,8 GB (занимает 2,24 DVDR, для записи нужно 3 болванки DVDR/RW)
 
 


Последний раз редактировалось: nemos (06.11.2014 08:30), всего редактировалось 5 раз(а)

nemos Пол:Муж

22-Апр-2014 19:35

Внимание! Данная раздача обновлена 16 серий .

Яндекс.Метрика powered by Sphinx


В Н И М А Н И Е
Сайт не распространяет и не хранит электронные версии произведений, а лишь бесплатно и без коммерческой выгоды (не требуя взамен платы,
SMS и т.д.) предоставляет доступ к создаваемому пользователями каталогу ссылок на торрент-файлы, которые содержат только списки хеш-сумм.
Убедительная просьба с жалобами обращаться напрямую к пользователю, разместившему торрент файл.

Вверх