Loading...
Error

Изгой / The Outsider (Брайан А Миллер / Brian A Miller) [2014, США, боевик, триллер, драма, криминал, детектив, HDRip] DVO (den904 & DeadSno)

Статистика раздачи
Размер:  1,42 GB   |    Зарегистрирован:  2 года 7 месяцев   |    Скачан:  26 раз

Полного источника не было: 1 год 9 месяцев

Сидов:  0  |  0 KB/s  ]   Личеров:  0  |  0 KB/s  ]

* - сиды/пиры с внешних источников

   
 
Автор Сообщение

FAR 

17-Апр-2014 00:50

Изгой / The Outsider (Брайан А Миллер / Brian A Miller) [2014, США, боевик, триллер, драма, криминал, детектив, HDRip] DVO (den904 & DeadSno)


Год выпуска: 2014
Жанр: боевик, триллер, драма, криминал, детектив
Страна: США
Режиссер: Брайан А Миллер / Brian A Miller
В ролях: Джейсон Патрик, Крэйг Фэйрбрасс, Джеймс Каан, Шеннон Элизабет, Бриттни Элгер, Джонни Месснер, Мелисса Ордвэй, Уильям Деври, Брайан А Миллер, Грег Спролс
Сюжет фильма:
Узнав, что его дочь погибла при невыясненных обстоятельствах, профессиональный наемник Лекс Уолкер отправляется в Лос Анджелес, чтобы найти и покарать тех, кто причастен к ее смерти. Горе тем, кто встанет у него на пути..

Качество видео: HDRip

Продолжительность: 01:34:00
Формат: AVI
Видео: XviD, 720x304, 23,976 кадра/сек, 1712 Кбит/сек
Аудио: русский, двухголосый закадровый [любительский], AC3 5.1, 48,0 КГц, 448 Кбит/сек (6 каналов)

Код:

The.Outsider.2014.HDRip.avi
Формат : AVI
Формат/Информация : Audio Video Interleave
Размер файла : 1,42 Гбайт
Продолжительность : 1 ч. 34 м.
Общий поток : 2169 Кбит/сек
Программа кодирования : VirtualDubMod 1.5.10.3 | www.virtualdub-fr.org || (build 2550/release)
Библиотека кодирования : VirtualDubMod build 2550/release

Видео
Идентификатор : 0
Формат : MPEG-4 Visual
Профиль формата : Advanced Simple@L5
Параметр BVOP формата : 1
Параметр QPel формата : Нет
Параметр GMC формата : Без точки перехода
Параметр матрицы формата : Выборочная
Идентификатор кодека : XVID
Идентификатор кодека/Подсказка : XviD
Продолжительность : 1 ч. 34 м.
Битрейт : 1712 Кбит/сек
Ширина : 720 пикселей
Высота : 304 пикселя
Соотношение сторон : 2,35:1
Частота кадров : 23,976 кадра/сек
Цветовое пространство : YUV
Субдискретизация насыщенности : 4:2:0
Битовая глубина : 8 бит
Тип развёртки : Прогрессивная
Метод сжатия : С потерями
Бит/(Пиксели*Кадры) : 0.326
Размер потока : 1,12 Гбайт (79%)
Библиотека кодирования : XviD 73

Аудио
Идентификатор : 1
Формат : AC-3
Формат/Информация : Audio Coding 3
Расширение режима : CM (complete main)
Параметр Endianness формата : Big
Идентификатор кодека : 2000
Продолжительность : 1 ч. 34 м.
Вид битрейта : Постоянный
Битрейт : 448 Кбит/сек
Каналы : 6 каналов
Расположение каналов : Front: L C R, Side: L R, LFE
Частота : 48,0 КГц
Битовая глубина : 16 бит
Метод сжатия : С потерями
Размер потока : 301 Мбайт (21%)
Выравнивание : Разделение по промежуткам
Продолжительность промежутка : 42 мс. (1,00 видеокадр)
Время предзагрузки промежутка : 500 мс.








Этот торрент недоступен для скачивания без регистрации, однако доступен по публичной magnet-ссылке (источники с публичных трекеров). Перед использованием ссылки прочтите, пожалуйста Пользовательское соглашение, а также как можно дольше оставайтесь на раздаче! Для того, чтобы скачать сам торрент-файл (который видит больше источников), а также для того, чтобы поблагодарить релизера, вам необходимо зарегистрироваться. Если регистрироваться лень - вы можете также попробовать скачать релиз по нашим партнерским ссылкам ниже.

[underverse.su].t38766.torrent
Трекер: Зарегистрирован   [ 17.04.2014 00:50 ]  

Статус: проверено (by Паукан at 17.04.2014 06:50)
Поблагодарили: пока никто не поблагодарил...
Тип торрента: публичный - доступные источники с открытых трекеров: 
Размер: 1,42 GB (занимает 0,33 DVDR, для записи нужно 1 болванка DVDR/RW)
 
 
Похожие темы
Форум Тема Автор Торрент Отв. Посл. сооб.
Зарубежное кино [HDDVDRip / BDRip / WEB-DL / HDTV 1080/720р] Изгой / The Outsider (Брайан А Миллер / Brian A Miller) [2014 г., боевик, триллер, драма, криминал, детектив, BDRip 720p] DVO (DeadSno & den904) + Original (Eng) + Sub (Eng) 90ytr90
14 | 0

0 | 417

27

17.04.2014 06:02


Яндекс.Метрика powered by Sphinx


В Н И М А Н И Е
Сайт не распространяет и не хранит электронные версии произведений, а лишь бесплатно и без коммерческой выгоды (не требуя взамен платы,
SMS и т.д.) предоставляет доступ к создаваемому пользователями каталогу ссылок на торрент-файлы, которые содержат только списки хеш-сумм.
Убедительная просьба с жалобами обращаться напрямую к пользователю, разместившему торрент файл.

Вверх