Loading...
Error

Доктор Тырса [1-24 серии из 24] (Алена Званцова, Дмитрий Константинов, Леонид Мазор) [2010 г., драма, детектив, DVDRip]

Статистика раздачи
Размер:  11,74 GB   |    Зарегистрирован:  2 года 7 месяцев   |    Скачан:  2 раза

Полного источника не было: 4 месяца 14 дней

Сидов:  0  |  0 KB/s  ]   Личеров:  0  |  0 KB/s  ]

* - сиды/пиры с внешних источников

   
 
Автор Сообщение

konopic Пол:Муж

16-Апр-2014 13:57

Доктор Тырса


Год выпуска: 2010
Жанр: драма, детектив
Страна: Россия
Режиссер: Алена Званцова, Дмитрий Константинов, Леонид Мазор
В ролях: Михаил Пореченков, Сергей Газаров, Михаил Трухин, Елена Панова, Ксения Кутепова, Олег Мазуров, Наталья Рогожкина, Роман Мадянов, Ерванд Арзуманян, Павел Меленчук, Александра Ровенских, Ирина Бразговка, Владимир Кузнецов, Дарья Иванова, Максим Пинскер, Анна Башенкова, Анна Пестрякова, Анна Дубровская, Алексей Лонгин, Александр Обласов, Артем Осипов, Константин Желдин, Мария Горбань, Владимир Виноградов, Любовь Кондрашова, Сергей Фёдоров (V), Сергей Удовик, Юлия Снигирь, Любовь Германова, Дмитрий Мухамадеев, Дарья Нещадимова, Игорь Воробьев, Виктор Запорожский, Александр Бухаров, Александра Тюфтей, Тамара Спиричева, Роман Богданов, Алексей Комашко, Сергей Серов, Андрей Гуркин, Максим Мигунов, Владимир Капустин (II), Анна Данилова, Ксения Черноскутова, Анастасия Имамова, Александр Яцко, Мария Рыщенкова, Светлана Иозефий, Елена Ташаева, Александр Макогон, Сергей Чирков, Александр Наумов, Александр Саньков, Елена Медведева, Надежда Пронина, Юлия Рутберг, Юлия Сухих, Михаил Станкевич, Сергей Гурьев, Ольга Хохлова, Сергей Шнырев, Андрей Абельцев, Галина Шевякова, Людмила Долгорукова, Геннадий Христенко, Анастасия Панина, Сергей Жарков, Михаил Владимиров, Елена Никитина (II), Светлана Иванова
Сюжет фильма:
Главный герой этого сериала – гениальный спортивный врач Геннадий Викторович Тырса.
Каждая серия – это отдельная история, отдельный медицинский случай – как правило, уникальный. Но сквозь всю картину проходит история самого Тырсы и его коллег – их отношения между собой, с друзьями, любимыми.
Действие разворачивается в больничном городке для спортсменов, где на кафедре спортивной травмы и работает доктор Тырса. Он абсолютно убежден в том, что взрослый, разумный человек имеет право выбора и волен распоряжаться собственной судьбой. Он не верит в "высшие смыслы" и существование "кого-то там, на небесах", кто имел бы право решать, диктовать и уж, тем более, отмерять: кому, сколько и как жить на этой Земле. Человек — хозяин своей жизни, и его твердое и взвешенное решение относительно собственной судьбы требует уважения.
Качество видео: DVDRip

Продолжительность: 24 x ~ 00:45:00
Формат: AVI
Видео: 704x400 (16:9), 25 fps, XviD MPEG-4 Visual, ~ 1489 kbps avg, ~ 0.211 bit/pixel
Аудио: 48 kHz, MPEG 1 or 2 Audio Layer 3 (MP3), 128kbps

Код:

General
Complete name : C:\Doktor Tursa_01 seriya_2010_DVDRip_SVAT.avi
Format : AVI
Format/Info : Audio Video Interleave
File size : 501 MiB
Duration : 43mn 3s
Overall bit rate : 1 627 Kbps
Writing application : VirtualDubMod 1.5.10.3 | www.virtualdub-fr.org || (build 2550/release)
Writing library : VirtualDubMod build 2550/release
Video
ID : 0
Format : MPEG-4 Visual
Format profile : Advanced Simple@L5
Format settings, BVOP : 2
Format settings, QPel : No
Format settings, GMC : No warppoints
Format settings, Matrix : Custom
Codec ID : XVID
Codec ID/Hint : XviD
Duration : 43mn 3s
Bit rate : 1 489 Kbps
Width : 704 pixels
Height : 400 pixels
Display aspect ratio : 16:9
Frame rate : 25.000 fps
Color space : YUV
Chroma subsampling : 4:2:0
Bit depth : 8 bits
Scan type : Progressive
Compression mode : Lossy
Bits/(Pixel*Frame) : 0.211
Stream size : 459 MiB (92%)
Writing library : XviD 61
Audio
ID : 1
Format : MPEG Audio
Format version : Version 1
Format profile : Layer 3
Mode : Joint stereo
Mode extension : MS Stereo
Codec ID : 55
Codec ID/Hint : MP3
Duration : 43mn 3s
Bit rate mode : Constant
Bit rate : 128 Kbps
Channel(s) : 2 channels
Sampling rate : 48.0 KHz
Compression mode : Lossy
Stream size : 39.4 MiB (8%)
Alignment : Aligned on interleaves
Interleave, duration : 40 ms (1.00 video frame)
Interleave, preload duration : 504 ms
Writing library : LAME3.98r
Encoding settings : -m j -V 4 -q 2 -lowpass 17 -b 128
picpicpicpicpicpic
Для увеличения картинки щелкните мышкой по превью

Этот торрент недоступен для скачивания без регистрации, однако доступен по публичной magnet-ссылке (источники с публичных трекеров). Перед использованием ссылки прочтите, пожалуйста Пользовательское соглашение, а также как можно дольше оставайтесь на раздаче! Для того, чтобы скачать сам торрент-файл (который видит больше источников), а также для того, чтобы поблагодарить релизера, вам необходимо зарегистрироваться. Если регистрироваться лень - вы можете также попробовать скачать релиз по нашим партнерским ссылкам ниже.

[underverse.su].t38731.torrent
Трекер: Зарегистрирован   [ 16.04.2014 13:57 ]  

Статус: проверено (by 90ytr90 at 16.04.2014 18:04)
Поблагодарили: пока никто не поблагодарил...
Тип торрента: публичный - доступные источники с открытых трекеров: 
Размер: 11,74 GB (занимает 2,68 DVDR, для записи нужно 3 болванки DVDR/RW)
 
 
Похожие темы
Форум Тема Автор Торрент Отв. Посл. сооб.
xUSSR сериалы Доктор Тырса / Серии 1-24 из 24 (Алена Званцова, Дмитрий Константинов, Леонид Мазор) [2010 г., Детектив, драма, IPTVRip] Директор
2 | 0

1 | 974

5

08.12.2010 20:45


Яндекс.Метрика powered by Sphinx


В Н И М А Н И Е
Сайт не распространяет и не хранит электронные версии произведений, а лишь бесплатно и без коммерческой выгоды (не требуя взамен платы,
SMS и т.д.) предоставляет доступ к создаваемому пользователями каталогу ссылок на торрент-файлы, которые содержат только списки хеш-сумм.
Убедительная просьба с жалобами обращаться напрямую к пользователю, разместившему торрент файл.

Вверх