Loading...
Error

(Шансон) Александр Новиков - Расстанься с ней (2012) [FLAC (Image+.CUE), Lossless]

Статистика раздачи
Размер:  281 MB   |    Зарегистрирован:  4 года 6 месяцев   |    Скачан:  5 раз

Полного источника не было: 5 месяцев

Сидов:  0  |  0 KB/s  ]   Личеров:  0  |  0 KB/s  ]

* - сиды/пиры с внешних источников

   
 
Автор Сообщение

Бишеп Пол:Муж

15-Апр-2014 08:25

Александр Новиков - Расстанься с ней

Жанр: Шансон
Год выпуска: 2012
Производитель диска: Mистерия Звука CD-M+189-2/9
Аудиокодек: FLAC
Тип рипа: Image+.CUE
Битрейт аудио: Lossless
Продолжительность: 00:43:30
Треклист:
01. Расстанься с ней
02. Красивая
03. Соломенный шалаш
04. Крошка
05. Три дня
06. Плейбой
07. Одиночество
08. Одна-единственная ночь
09. Сладкий грех
10. Шара-бара
11. Порт-Артур

Exact Audio Copy V1.0 beta 1 from 15. November 2010

Отчёт EAC об извлечении, выполненном 26. февраля 2012, 8:08

Александр Новиков / Расстанься с ней

Дисковод: _NEC DV-5800E Adapter: 0 ID: 1

Режим чтения : Достоверность
Использование точного потока : Да
Отключение кэша аудио : Да
Использование указателей C2 : Нет

Коррекция смещения при чтении : 6
Способность читать области Lead-in и Lead-out : Нет
Заполнение пропущенных сэмплов тишиной : Да
Удаление блоков с тишиной в начале и конце : Нет
При вычислениях CRC использовались нулевые сэмплы : Да
Интерфейс : Установленный внешний ASPI-интерфейс

Выходной формат : Внутренние WAV-операции
Формат сэмплов : 44.100 Гц; 16 бит; стерео

TOC извлечённого CD

Трек | Старт | Длительность | Начальный сектор | Конечный сектор
---------------------------------------------------------------------
1 | 0:00.00 | 4:03.50 | 0 | 18274
2 | 4:03.50 | 3:25.46 | 18275 | 33695
3 | 7:29.21 | 3:25.31 | 33696 | 49101
4 | 10:54.52 | 4:17.49 | 49102 | 68425
5 | 15:12.26 | 4:11.43 | 68426 | 87293
6 | 19:23.69 | 3:06.17 | 87294 | 101260
7 | 22:30.11 | 4:06.42 | 101261 | 119752
8 | 26:36.53 | 4:38.25 | 119753 | 140627
9 | 31:15.03 | 3:47.50 | 140628 | 157702
10 | 35:02.53 | 4:05.34 | 157703 | 176111
11 | 39:08.12 | 4:22.06 | 176112 | 195767

Характеристики диапазона извлечения и сообщения об ошибках

Выбранный диапазон

Имя файла C:\Documents and Settings\Admin\Рабочий стол\Новиков Александр - Расстанься с ней (2012г.)\Александр Новиков - Расстанься с ней.wav

Пиковый уровень 95.5 %
1.0 X
Качество диапазона 100.0 %
CRC теста 1C3B6536
CRC копии 1C3B6536
Копирование... OK

Ошибок не произошло

AccurateRip: сводка
Трек 1 нет в базе данных
Трек 2 нет в базе данных
Трек 3 нет в базе данных
Трек 4 нет в базе данных
Трек 5 нет в базе данных
Трек 6 нет в базе данных
Трек 7 нет в базе данных
Трек 8 нет в базе данных
Трек 9 нет в базе данных
Трек 10 нет в базе данных
Трек 11 нет в базе данных
Ни одного трека нет в базе AccurateRip

Конец отчёта

AUDIOCHECKER v2.0 beta (build 457) - by Dester - opdester@freemail.hu
~~~~~~~~~~~~~~~~~~~~~~~~~~~~~~~~~~
-=== НЕ РЕДАКТИРУЙТЕ ЭТОТ ФАЙЛ! ===-
Путь: ...\Александр Новиков - Расстанься с ней (2012) (Lossless)
1 -=- Александр Новиков - Расстанься с ней.flac -=- CDDA (100%)
48734436
pic
Для увеличения картинки щелкните мышкой по превью

Этот торрент недоступен для скачивания без регистрации, однако доступен по публичной magnet-ссылке (источники с публичных трекеров). Перед использованием ссылки прочтите, пожалуйста Пользовательское соглашение, а также как можно дольше оставайтесь на раздаче! Для того, чтобы скачать сам торрент-файл (который видит больше источников), а также для того, чтобы поблагодарить релизера, вам необходимо зарегистрироваться. Если регистрироваться лень - вы можете также попробовать скачать релиз по нашим партнерским ссылкам ниже. Кроме того, зарегистрированным пользователям не показывается всплывающая реклама при скачивании.

[underverse.su].t38653.torrent
Трекер: Зарегистрирован   [ 15.04.2014 08:25 ]  

Статус: проверено (by Бишеп at 15.04.2014 08:25)
Поблагодарили: пока никто не поблагодарил...
Тип торрента: публичный - доступные источники с открытых трекеров: 
Размер: 281 MB (занимает 0,06 DVDR, для записи нужно 1 болванка DVDR/RW)
 
 
Похожие темы
Форум Тема Автор Торрент Отв. Посл. сооб.
Шансон (Шансон) Андрей Климнюк - От Афгана до Чечни - 1999, MP3, 320 kbps Bugor
1 | 0

0 | 2565

9

11.09.2012 15:17

Шансон (Шансон) Аркадий Неверный - "Памяти С.А.Есенина" - 2006, MP3, 320 kbps Bugor
1 | 0

0 | 1523

22

11.09.2012 17:40

Шансон (Шансон) Александр Дюмин - Старый паровоз (2013) [MP3, 320 kbps CBR] terra07
1 | 0

0 | 2611

32

04.09.2013 18:57

Шансон (Шансон) Аркадий Кобяков - Лучшие песни (2013) [MP3, 320 kbps CBR] Rodger23
6 | 2

0 | 2228

21

23.05.2014 04:33

Шансон (Lossless) (Шансон) Антология Русского Шансона: Владимир Асмолов - Звёздная серия (2002) [FLAC (Image+.CUE), Lossless] Бишеп
1 | 0

0 | 1624

19

31.07.2012 13:20

Шансон (Lossless) (Шансон) Анатолий Полотно - Анатолий Полотно и группа Лоц-Мэн (1995) [FLAC (Image+.CUE), Lossless] Бишеп
1 | 0

0 | 1394

10

28.09.2012 09:44

Шансон (Lossless) (Шансон) Анатолий Полотно и Федя Карманов - Поцелуй меня, удача! (2007) [FLAC (Image+.CUE), Lossless] Бишеп
1 | 0

1 | 2254

4

10.10.2012 10:09

Шансон (Lossless) (Шансон) Анатолий Полотно - В мелодиях и красках 2 CD (1995) [FLAC (Image+.CUE), Lossless] Бишеп
1 | 0

0 | 1312

9

09.10.2012 18:39

Шансон (Lossless) (Шансон) Анатолий Полотно - На севере (2005) [FLAC (Image+.CUE), Lossless] Бишеп
1 | 0

0 | 1718

16

01.11.2012 08:58

Шансон (Lossless) (Шансон) Анатолий Полотно - Против ветра (2008) [FLAC (Image+.CUE), Lossless] Бишеп
1 | 0

0 | 1198

1

20.11.2012 09:42


Яндекс.Метрика powered by Sphinx


В Н И М А Н И Е
Сайт не распространяет и не хранит электронные версии произведений, а лишь бесплатно и без коммерческой выгоды (не требуя взамен платы,
SMS и т.д.) предоставляет доступ к создаваемому пользователями каталогу ссылок на торрент-файлы, которые содержат только списки хеш-сумм.
Убедительная просьба с жалобами обращаться напрямую к пользователю, разместившему торрент файл.

Вверх