Loading...
Error

Чужой район 3 (1-32 серии из 32) (Игорь Драка, Дмитрий Аверин, Богдан Дробязко) [2014 г., детектив, криминал, SatRip]

Статистика раздачи
Размер:  19,08 GB   |    Зарегистрирован:  2 года 7 месяцев   |    Скачан:  7 раз

Полного источника не было: 5 месяцев 4 дня

Сидов:  0  |  0 KB/s  ]   Личеров:  0  |  0 KB/s  ]

* - сиды/пиры с внешних источников

   
 
Автор Сообщение

nemos Пол:Муж

14-Апр-2014 21:24

Чужой район 3


Год выпуска: 2014
Жанр: детектив, криминал
Страна: Россия
Режиссер: Игорь Драка, Дмитрий Аверин, Богдан Дробязко
В ролях: Денис Рожков, Кирилл Полухин, Сергей Колос, Алексей Нилов, Зоя Буряк, Екатерина Проскурина, Игорь Головин, Юрий Архангельский, Вячеслав Аркунов, Алексей Одинг
Сюжет фильма:
Следователи поспешили закрыть дело о покушении на участкового района Красный Молот капитана полиции Андрея Фролова, в результате которого был тяжело ранен его отец. Фролов подозревает, что организовал покушение его давний враг, бывший полицейский-оборотень Толя Дубинин. Но подозрения, как известно, к делу не пришьешь…Между тем Фролов вновь готовится к переводу в уголовный розыск Центрального района, откуда он и был в свое время сослан на окраину Санкт-Петербурга, невольно перейдя дорогу влиятельному полицейскому генералу.Но очередное столкновение с Дубининым и козни находящегося в розыске главы районной администрации Александра Петрова вновь перечеркивают планы Андрея…


Качество видео: SatRip

Продолжительность: 00:43:59 серия
Формат: AVI
Видео: XviD, 720 x 400, 1800 kbps
Аудио: русский, MP3 2.0, 128 kbps

Код:

D:\Фильмы (роздача)\Чужой район - 3 (2014)\Чужой район – 3. Серия 01 (2014).avi
   General
      Complete name : D:\Фильмы (роздача)\Чужой район - 3 (2014)\Чужой район – 3. Серия 01 (2014).avi
      Format : AVI
      Format/Info : Audio Video Interleave
      File size : 610 MiB
      Duration : 43mn 59s
      Overall bit rate : 1 938 Kbps
      Writing application : VirtualDubMod 1.5.10.3 | www.virtualdub-fr.org || (build 2550/release)
      Writing library : VirtualDub build 32507/release
   Video #0
      ID : 0
      Format : MPEG-4 Visual
      Format profile : Advanced Simple@L5
      Format settings, BVOP : 2
      Format settings, QPel : No
      Format settings, GMC : No warppoints
      Format settings, Matrix : Default (MPEG)
      Codec ID : XVID
      Codec ID/Hint : XviD
      Duration : 43mn 59s
      Bit rate : 1 800 Kbps
      Width : 720 pixels
      Height : 400 pixels
      Display aspect ratio : 16:9
      Frame rate : 25.000 fps
      Color space : YUV
      Chroma subsampling : 4:2:0
      Bit depth : 8 bits
      Scan type : Progressive
      Compression mode : Lossy
      Bits/(Pixel*Frame) : 0.250
      Stream size : 566 MiB (93%)
      Writing library : XviD 1.2.1 (UTC 2008-12-04)
   Audio #1
      ID : 1
      Format : MPEG Audio
      Format version : Version 1
      Format profile : Layer 3
      Mode : Joint stereo
      Codec ID : 55
      Codec ID/Hint : MP3
      Duration : 43mn 58s
      Bit rate mode : Constant
      Bit rate : 128 Kbps
      Channel(s) : 2 channels
      Sampling rate : 48.0 KHz
      Compression mode : Lossy
      Stream size : 40.3 MiB (7%)
      Alignment : Aligned on interleaves
      Interleave, duration : 40 ms (1.00 video frame)
      Interleave, preload duration : 504 ms
      Writing library : LAME3.99r
      Encoding settings : -m j -V 4 -q 2 -lowpass 17 -b 128
picpicpicpicpicpicpicpicpicpicpicpic
Для увеличения картинки щелкните мышкой по превью

Этот торрент недоступен для скачивания без регистрации, однако доступен по публичной magnet-ссылке (источники с публичных трекеров). Перед использованием ссылки прочтите, пожалуйста Пользовательское соглашение, а также как можно дольше оставайтесь на раздаче! Для того, чтобы скачать сам торрент-файл (который видит больше источников), а также для того, чтобы поблагодарить релизера, вам необходимо зарегистрироваться. Если регистрироваться лень - вы можете также попробовать скачать релиз по нашим партнерским ссылкам ниже.

[underverse.su].t39520.torrent
Трекер: Зарегистрирован   [ 30.04.2014 15:11 ]  

Статус: проверено (by 90ytr90 at 02.05.2014 10:31)
Поблагодарили: 4 человека
Тип торрента: публичный - доступные источники с открытых трекеров: 
Размер: 19,08 GB (занимает 4,36 DVDR, для записи нужно 5 болванок DVDR/RW)
 
 
Похожие темы
Форум Тема Автор Торрент Отв. Посл. сооб.
xUSSR сериалы Чужой район / Серии: 1-24 [24] (Андрей Коршунов, Максим Бриус) [2012 г., детектив, криминал, SatRip] nemos
25 | 9

0 | 800

20

12.04.2013 15:29

xUSSR сериалы Чужой район 2 / Серии: 1-32 [32] (Максим Бриус) [2013 г., детектив, криминал, SatRip] nemos
38 | 9

1 | 1926

14

26.04.2013 15:24

xUSSR сериалы Чужой район 2 [01-32 из 32] (Максим Бриус) [2012 г., детектив, криминал, DVB] TERRAN
12 | 2

0 | 390

5

01.05.2013 18:09



Последний раз редактировалось: nemos (06.11.2014 08:31), всего редактировалось 11 раз(а)

nemos Пол:Муж

15-Апр-2014 19:08

Внимание! Данная раздача обновлена 32 серии.

Яндекс.Метрика powered by Sphinx


В Н И М А Н И Е
Сайт не распространяет и не хранит электронные версии произведений, а лишь бесплатно и без коммерческой выгоды (не требуя взамен платы,
SMS и т.д.) предоставляет доступ к создаваемому пользователями каталогу ссылок на торрент-файлы, которые содержат только списки хеш-сумм.
Убедительная просьба с жалобами обращаться напрямую к пользователю, разместившему торрент файл.

Вверх