Loading...
Error

Братаны 4 (1-32 серии из 32) (Владимир Виноградов, Александр Калугин) [2013 г., боевик, криминал, SatRip]

Статистика раздачи
Размер:  19,45 GB   |    Зарегистрирован:  1 год 11 месяцев   |    Скачан:  4 раза

Полного источника не было: 1 год 9 месяцев

Сидов:  0  |  0 KB/s  ]   Личеров:  0  |  0 KB/s  ]

* - сиды/пиры с внешних источников

   
 
Автор Сообщение

nemos Пол:Муж

14-Апр-2014 20:38


Год выпуска: 2013
Жанр: боевик, криминал
Страна: Россия
Режиссер: Владимир Виноградов, Александр Калугин
В ролях: Алексей Кравченко, Сергей Селин, Антон Хабаров, Даниил Воробьев, Вадим Цаллати, Владимир Паршенков, Анастасия Семёнова, Денис Карасев, Игорь Миркурбанов, Михаил Хмуров
Качество видео: SatRip

Продолжительность: 00:45:54 серия
Формат: AVI
Видео: XviD, 720x448, 1800 kbps
Аудио: русский, MP3 2.0, 128 kbps

Друзья-десантники, не привыкшие сидеть на месте, в обыденной жизни не находят себя. Бытовые и семейные проблемы, кажется, способны разрушить их дружбу. Случайная встреча Макара с особо опасным преступником Журбиным меняет жизнь братанов. Братанам будут мешать на каждом шагу, пока они, наконец, не распутают сложную цепь трагических событий и не вступят в решающую схватку с врагом.

Код:

D:\Фильмы (роздача)\Братаны 4 (2014)\Братаны 4. Серия 01 (2014).avi
   General
      Complete name : D:\Фильмы (роздача)\Братаны 4 (2014)\Братаны 4. Серия 01 (2014).avi
      Format : AVI
      Format/Info : Audio Video Interleave
      File size : 636 MiB
      Duration : 45mn 54s
      Overall bit rate : 1 938 Kbps
      Writing application : VirtualDubMod 1.5.10.3 | www.virtualdub-fr.org || (build 2550/release)
      Writing library : VirtualDub build 32507/release
   Video #0
      ID : 0
      Format : MPEG-4 Visual
      Format profile : Advanced Simple@L5
      Format settings, BVOP : 2
      Format settings, QPel : No
      Format settings, GMC : No warppoints
      Format settings, Matrix : Default (MPEG)
      Codec ID : XVID
      Codec ID/Hint : XviD
      Duration : 45mn 54s
      Bit rate : 1 800 Kbps
      Width : 720 pixels
      Height : 448 pixels
      Display aspect ratio : 1.607
      Frame rate : 25.000 fps
      Color space : YUV
      Chroma subsampling : 4:2:0
      Bit depth : 8 bits
      Scan type : Progressive
      Compression mode : Lossy
      Bits/(Pixel*Frame) : 0.223
      Stream size : 591 MiB (93%)
      Writing library : XviD 1.2.1 (UTC 2008-12-04)
   Audio #1
      ID : 1
      Format : MPEG Audio
      Format version : Version 1
      Format profile : Layer 3
      Mode : Joint stereo
      Mode extension : MS Stereo
      Codec ID : 55
      Codec ID/Hint : MP3
      Duration : 45mn 54s
      Bit rate mode : Constant
      Bit rate : 128 Kbps
      Channel(s) : 2 channels
      Sampling rate : 48.0 KHz
      Compression mode : Lossy
      Stream size : 42.0 MiB (7%)
      Alignment : Aligned on interleaves
      Interleave, duration : 40 ms (1.00 video frame)
      Interleave, preload duration : 504 ms
      Writing library : LAME3.99r
      Encoding settings : -m j -V 4 -q 2 -lowpass 17 -b 128
picpicpicpicpicpic
Для увеличения картинки щелкните мышкой по превью

Этот торрент недоступен для скачивания без регистрации, однако доступен по публичной magnet-ссылке (источники с публичных трекеров). Перед использованием ссылки прочтите, пожалуйста Пользовательское соглашение, а также как можно дольше оставайтесь на раздаче! Для того, чтобы скачать сам торрент-файл (который видит больше источников), а также для того, чтобы поблагодарить релизера, вам необходимо зарегистрироваться. Если регистрироваться лень - вы можете также попробовать скачать релиз по нашим партнерским ссылкам ниже.

[underverse.su].t47549.torrent
Трекер: Зарегистрирован   [ 19.12.2014 16:56 ]  

Статус: проверено (by nemos at 19.12.2014 16:56)
Поблагодарили: 3 человека
Тип торрента: публичный - доступные источники с открытых трекеров: 
Размер: 19,45 GB (занимает 4,44 DVDR, для записи нужно 5 болванок DVDR/RW)
 
 


Последний раз редактировалось: nemos (29.12.2014 14:59), всего редактировалось 12 раз(а)

nemos Пол:Муж

18-Дек-2014 08:09

Раздача обновлена! 32 серии.

Яндекс.Метрика powered by Sphinx


В Н И М А Н И Е
Сайт не распространяет и не хранит электронные версии произведений, а лишь бесплатно и без коммерческой выгоды (не требуя взамен платы,
SMS и т.д.) предоставляет доступ к создаваемому пользователями каталогу ссылок на торрент-файлы, которые содержат только списки хеш-сумм.
Убедительная просьба с жалобами обращаться напрямую к пользователю, разместившему торрент файл.

Вверх