Loading...
Error

Бонни и Клайд / Bonnie and Clyde (Брюс Бересфорд) [2013 г., драма, криминал, биография, HDRip] MVO

Статистика раздачи
Размер:  3,27 GB   |    Зарегистрирован:  2 года 7 месяцев   |    Скачан:  19 раз

Полного источника не было: 8 месяцев

Сидов:  0  |  0 KB/s  ]   Личеров:  0  |  0 KB/s  ]

* - сиды/пиры с внешних источников

   
 
Автор Сообщение

UseR Пол:Муж

14-Апр-2014 19:17

Бонни и Клайд / Bonnie and Clyde


Год выпуска: 2013
Жанр: драма, криминал, биография
Страна: США
Режиссер: Брюс Бересфорд
В ролях: Холлидей Грейнджер, Эмиль Хирш, Элизабет Ризер, Лэйн Гаррисон, Дейл Дикки, Остин Хеберт, Уильям Хёрт, Десмонд Филлипс, Карл Палмер, Дэвид Дженсен
Сюжет фильма:
Действие происходит в США, во времена Великой Депрессии. Официантка Бонни Паркер знакомится с преступником Клайдом Бэрроу, когда тот пытался угнать машину её матери. Бонни надоела её беспросветная жизнь в захолустье, а Клайд производит на неё впечатление рассказами о лёгкой наживе. Они сближаются и становятся членами банды, промышляя грабежом и разбоем. Их жертвами становится персонал заправочных станций, магазинов и отделений банков. Поначалу налётчикам-любителям везёт и им удаётся, вступая в перестрелки, уходить от полиции. После нескольких успешных дел сообщники становятся всё увереннее в себе и всё беспощаднее со своими жертвами.

  • Мировая премьера: 8 декабря 2013

Качество видео: HDRip

Продолжительность: 02:54:07
Формат: avi
Видео: XviD, 720x400, 2029 kbps
Аудио #1: русский, многоголосый закадровый [любительский], AC3 2.0, 192 kbps
Аудио #2: русский, многоголосый закадровый [любительский], AC3 5.1, 448 kbps

Код:

General
Complete name                    : D:\Video\Бонни и Клайд\Bonny.i.Klaid.s01e01-e02.Jetvis.HDRip.avi
Format                           : AVI
Format/Info                      : Audio Video Interleave
Format profile                   : OpenDML
File size                        : 3.27 GiB
Duration                         : 2h 54mn
Overall bit rate                 : 2 685 Kbps
Writing application              : VirtualDubMod 1.5.10.2 (build 2540/release)
Writing library                  : VirtualDubMod build 2540/release

Video
ID                               : 0
Format                           : MPEG-4 Visual
Format profile                   : Streaming Video@L1
Format settings, BVOP            : Yes
Format settings, QPel            : No
Format settings, GMC             : No warppoints
Format settings, Matrix          : Default (H.263)
Muxing mode                      : Packed bitstream
Codec ID                         : XVID
Codec ID/Hint                    : XviD
Duration                         : 2h 54mn
Bit rate                         : 2 029 Kbps
Width                            : 720 pixels
Height                           : 400 pixels
Display aspect ratio             : 16/9
Frame rate                       : 23.976 fps
Resolution                       : 24 bits
Colorimetry                      : 4:2:0
Scan type                        : Progressive
Bits/(Pixel*Frame)               : 0.294
Stream size                      : 2.47 GiB (76%)
Writing library                  : XviD 1.2.1 (UTC 2008-12-04)

Audio #1
ID                               : 1
Format                           : AC-3
Format/Info                      : Audio Coding 3
Codec ID                         : 2000
Duration                         : 2h 54mn
Bit rate mode                    : Constant
Bit rate                         : 192 Kbps
Channel(s)                       : 2 channels
Channel positions                : L R
Sampling rate                    : 48.0 KHz
Stream size                      : 239 MiB (7%)
Alignment                        : Split accross interleaves
Interleave, duration             : 42 ms (1.00 video frame)
Interleave, preload duration     : 500 ms

Audio #2
ID                               : 2
Format                           : AC-3
Format/Info                      : Audio Coding 3
Codec ID                         : 2000
Duration                         : 2h 54mn
Bit rate mode                    : Constant
Bit rate                         : 448 Kbps
Channel(s)                       : 6 channels
Channel positions                : Front: L C R, Surround: L R, LFE
Sampling rate                    : 48.0 KHz
Stream size                      : 558 MiB (17%)
Alignment                        : Split accross interleaves
Interleave, duration             : 42 ms (1.00 video frame)
Interleave, preload duration     : 500 ms

picpicpicpicpicpicpicpic
Для увеличения картинки щелкните мышкой по превью

Этот торрент недоступен для скачивания без регистрации, однако доступен по публичной magnet-ссылке (источники с публичных трекеров). Перед использованием ссылки прочтите, пожалуйста Пользовательское соглашение, а также как можно дольше оставайтесь на раздаче! Для того, чтобы скачать сам торрент-файл (который видит больше источников), а также для того, чтобы поблагодарить релизера, вам необходимо зарегистрироваться. Если регистрироваться лень - вы можете также попробовать скачать релиз по нашим партнерским ссылкам ниже.

[underverse.su].t38639.torrent
Трекер: Зарегистрирован   [ 14.04.2014 19:17 ]  

Статус: ? недооформлено (by Паукан at 15.04.2014 08:07)
Поблагодарили: 1 человек
Тип торрента: публичный - доступные источники с открытых трекеров: 
Размер: 3,27 GB (занимает 0,75 DVDR, для записи нужно 1 болванка DVDR/RW)
 
 
Похожие темы
Форум Тема Автор Торрент Отв. Посл. сооб.
Классика зарубежного кино Бонни и Клайд / Bonnie and Clyde (Артур Пенн) [1967 г., драма, криминал, биография, BDRip-AVC] MVO (SomeWax) + MVO + Original (Eng) DarkAngel
8 | 0

1 | 848

16

05.02.2013 05:45



Последний раз редактировалось: UseR (17.04.2014 04:20), всего редактировалось 1 раз

Паукан Пол:Муж

15-Апр-2014 08:07

UseR писал(а):

английский, многоголосый закадровый [любительский],
это как? сами себя переводили? :shock:

Яндекс.Метрика powered by Sphinx


В Н И М А Н И Е
Сайт не распространяет и не хранит электронные версии произведений, а лишь бесплатно и без коммерческой выгоды (не требуя взамен платы,
SMS и т.д.) предоставляет доступ к создаваемому пользователями каталогу ссылок на торрент-файлы, которые содержат только списки хеш-сумм.
Убедительная просьба с жалобами обращаться напрямую к пользователю, разместившему торрент файл.

Вверх