Loading...
Error

(Шансон) Виталий Аксёнов - Ветер долгожданный (2013) [FLAC (Image+.CUE), Lossless]

Статистика раздачи
Размер:  408 MB   |    Зарегистрирован:  4 года 4 месяца   |    Скачан:  6 раз

Полного источника не было: 5 месяцев 9 дней

Сидов:  0  |  0 KB/s  ]   Личеров:  0  |  0 KB/s  ]

* - сиды/пиры с внешних источников

   
 
Автор Сообщение

Бишеп Пол:Муж

14-Апр-2014 17:00

Виталий Аксёнов - Ветер долгожданный

Жанр: Шансон
Год выпуска: 2013
Производитель диска: Mонолит МТ001091-228-1
Аудиокодек: FLAC
Тип рипа: Image+.CUE
Битрейт аудио: Lossless
Продолжительность: 01:01:21
Треклист:
01. Дороги
02. Вот я снова на Дону
03. Ветер долгожданный
04. Заскучал я по товарищу
05. Ничего, ничего
06. Дни-деньки
07. Владивосток
08. Мужское счастье
09. Анастасия
10. Королева-Госпожа
11. Дядя Лёша
12. Облака
13. Солдат

Exact Audio Copy V1.0 beta 1 from 15. November 2010

Отчёт EAC об извлечении, выполненном 16. марта 2013, 19:14

Виталий Аксёнов / Ветер долгожданный

Дисковод: ATAPI iHAP122 W Adapter: 0 ID: 0

Режим чтения : Достоверность
Использование точного потока : Да
Отключение кэша аудио : Да
Использование указателей C2 : Нет

Коррекция смещения при чтении : 6
Способность читать области Lead-in и Lead-out : Нет
Заполнение пропущенных сэмплов тишиной : Да
Удаление блоков с тишиной в начале и конце : Нет
При вычислениях CRC использовались нулевые сэмплы : Да
Интерфейс : Установленный внешний ASPI-интерфейс

Выходной формат : Внутренние WAV-операции
Формат сэмплов : 44.100 Гц; 16 бит; стерео

TOC извлечённого CD

Трек | Старт | Длительность | Начальный сектор | Конечный сектор
---------------------------------------------------------------------
1 | 0:00.00 | 4:35.68 | 0 | 20692
2 | 4:35.68 | 4:24.36 | 20693 | 40528
3 | 9:00.29 | 4:39.05 | 40529 | 61458
4 | 13:39.34 | 5:46.33 | 61459 | 87441
5 | 19:25.67 | 4:03.28 | 87442 | 105694
6 | 23:29.20 | 3:48.40 | 105695 | 122834
7 | 27:17.60 | 4:51.56 | 122835 | 144715
8 | 32:09.41 | 5:47.47 | 144716 | 170787
9 | 37:57.13 | 4:29.60 | 170788 | 191022
10 | 42:26.73 | 5:12.16 | 191023 | 214438
11 | 47:39.14 | 4:47.66 | 214439 | 236029
12 | 52:27.05 | 4:44.39 | 236030 | 257368
13 | 57:11.44 | 4:10.06 | 257369 | 276124

Характеристики диапазона извлечения и сообщения об ошибках

Выбранный диапазон

Имя файла C:\Documents and Settings\Admin\Рабочий стол\Аксёнов Виталий - Ветер Долгожданный (2013г.)\Виталий Аксёнов - Ветер долгожданный.wav

Пиковый уровень 27.5 %
0.1 X
Качество диапазона 100.0 %
CRC теста AECC5C23
CRC копии AECC5C23
Копирование... OK

Ошибок не произошло

AccurateRip: сводка
Трек 1 нет в базе данных
Трек 2 нет в базе данных
Трек 3 нет в базе данных
Трек 4 нет в базе данных
Трек 5 нет в базе данных
Трек 6 нет в базе данных
Трек 7 нет в базе данных
Трек 8 нет в базе данных
Трек 9 нет в базе данных
Трек 10 нет в базе данных
Трек 11 нет в базе данных
Трек 12 нет в базе данных
Трек 13 нет в базе данных
Ни одного трека нет в базе AccurateRip

Конец отчёта

pic
Для увеличения картинки щелкните мышкой по превью

Этот торрент недоступен для скачивания без регистрации, однако доступен по публичной magnet-ссылке (источники с публичных трекеров). Перед использованием ссылки прочтите, пожалуйста Пользовательское соглашение, а также как можно дольше оставайтесь на раздаче! Для того, чтобы скачать сам торрент-файл (который видит больше источников), а также для того, чтобы поблагодарить релизера, вам необходимо зарегистрироваться. Если регистрироваться лень - вы можете также попробовать скачать релиз по нашим партнерским ссылкам ниже. Кроме того, зарегистрированным пользователям не показывается всплывающая реклама при скачивании.

[underverse.su].t38630.torrent
Трекер: Зарегистрирован   [ 14.04.2014 17:00 ]  

Статус: проверено (by Бишеп at 14.04.2014 17:00)
Поблагодарили: пока никто не поблагодарил...
Тип торрента: публичный - доступные источники с открытых трекеров: 
Размер: 408 MB (занимает 0,09 DVDR, для записи нужно 1 болванка DVDR/RW)
 
 
Похожие темы
Форум Тема Автор Торрент Отв. Посл. сооб.
Шансон (Шансон) Виктор Неплюев - 2011 - Дорожные песни. Без Ухабов и Проколов, MP3, 320 kbps Bugor
0 | 0

0 | 1262

7

11.09.2012 17:25

Шансон (Шансон) Вадим Жогин - По дороге - 2005, MP3, 320 kbps Bugor
1 | 0

0 | 1150

11

11.09.2012 17:37

Шансон (Шансон) Виктор Петлюра - Два полюса (2013) [MP3, 320 kbps CBR] terra07
0 | 0

0 | 1753

32

31.08.2013 04:47

Шансон (Шансон) Владимир Асмолов - Дискография (Серия Русский Шансон) (1986-2008) [MP3, 320 kbps] tenax_555
1 | 1

1 | 1556

24

09.04.2014 19:01

Шансон (Lossless) (Шансон) Вилли Токарев - В шумном балагане (1994) [FLAC (Image+.CUE), Lossless] Бишеп
1 | 0

0 | 1144

18

30.06.2012 15:40

Шансон (Lossless) (Шансон) Вилли Токарев - Слухи (1996) [FLAC (Image+.CUE), Lossless] Бишеп
1 | 0

0 | 967

9

30.06.2012 15:47

Шансон (Lossless) (Шансон) Вилли Токарев - Золото (1994) [FLAC (Image+.CUE), Lossless] Бишеп
1 | 0

0 | 1041

14

03.07.2012 09:05

Шансон (Lossless) (Шансон) Вилли Токарев - Над Гудзоном (1994) [FLAC (Image+.CUE), Lossless] Бишеп
1 | 0

0 | 1023

13

03.07.2012 09:11

Шансон (Lossless) (Шансон) Владимир Асмолов - Бархатный сезон в Сочи (2011) [FLAC (Image+.CUE), Lossless] Бишеп
1 | 0

1 | 1359

3

10.10.2012 10:10

Шансон (Lossless) (Шансон) Вилли Токарев - Летят перелетные птицы (1994) [FLAC (Image+.CUE), Lossless] Бишеп
1 | 0

0 | 1245

9

18.06.2013 05:58


Яндекс.Метрика powered by Sphinx


В Н И М А Н И Е
Сайт не распространяет и не хранит электронные версии произведений, а лишь бесплатно и без коммерческой выгоды (не требуя взамен платы,
SMS и т.д.) предоставляет доступ к создаваемому пользователями каталогу ссылок на торрент-файлы, которые содержат только списки хеш-сумм.
Убедительная просьба с жалобами обращаться напрямую к пользователю, разместившему торрент файл.

Вверх