Loading...
Error

Игрушки / Сезон: 1-2 / Серии: 1-40 из 40 (Ирина Васильева, Роман Фокин) [2010 г., комедия, SatRip]

Статистика раздачи
Размер:  11,73 GB   |    Зарегистрирован:  2 года 7 месяцев   |    Скачан:  6 раз

Полного источника не было: 2 месяца 20 дней

Сидов:  0  |  0 KB/s  ]   Личеров:  0  |  0 KB/s  ]

* - сиды/пиры с внешних источников

   
 
Автор Сообщение

konopic Пол:Муж

14-Апр-2014 12:35

Игрушки


Год выпуска: 2010
Жанр: комедия
Страна: Россия, YBW Group, телеканал "СТС"
Режиссер: Ирина Васильева, Роман Фокин
В ролях: Екатерина Копанова, Роман Полянский, Роман Маякин, Юлия Борилова, Анна Антонова, Всеволод Болдин, Святослав Гулин, Денис Ясик, Сергей Ларин, Борис Эстрин, Данила Ариков, Ольга и Анна Ивановы, Юлия Рутберг, Александр Семчев.
Сюжет фильма:
Главная героиня Варвара Некрасова живет в Москве в купленной родителями квартире («предки» занимаются нефтяным бизнесом в Сургуте и в состоянии приобрести недвижимость в столице). Варя руководит отделом спецпроектов в компании «Мир веселых детей», которая занимается производством игрушек. Встречается с женатым человеком Стасом, но мечтает о настоящей семье и очень хочет иметь детей. Стас Мартынов — заместитель генерального директора в этой же компании. Вот уже год, как Стас обещает «через месяц» поговорить с женой, и Варя ждет.

Внезапно из армии возвращается родной брат Вари, Дмитрий Некрасов и вносит свои коррективы в повседневную жизнь Вари и ее взаимоотношения со Стасом.


Качество видео: SatRip

Продолжительность: 40 х~00:24:00
Формат: AVI
Видео: 704x400 (1.76:1), 25 fps, XviD MPEG-4 ~1620 kbps avg, 0.23 bit/pixel
Аудио: 48 kHz, MPEG Layer 3, 2 ch, ~128.00 kbps avg

Код:

Полное имя :Igrushki.(10.seriya).2010.XviD.SATRip_MDTeam.avi
Формат : AVI
Формат/Информация : Audio Video Interleave
Размер файла : 301 Мбайт
Продолжительность : 24 м.
Общий поток : 1758 Кбит/сек
Программа кодирования : VirtualDubMod 1.5.10.2 (build 2542/release)
Библиотека кодирования : VirtualDubMod build 2542/release
Видео
Идентификатор : 0
Формат : MPEG-4 Visual
Профиль формата : Advanced Simple@L5
Параметр BVOP формата : 2
Параметр QPel формата : Нет
Параметр GMC формата : Без точки перехода
Параметр матрицы формата : Default (MPEG)
Режим смешивания : Сжатый битовый поток
Идентификатор кодека : XVID
Идентификатор кодека/Подсказка : XviD
Продолжительность : 24 м.
Битрейт : 1621 Кбит/сек
Ширина : 704 пикс.
Высота : 400 пикс.
Соотношение сторон : 16:9
Частота кадров : 25,000 кадр/сек
Цветовое пространство : YUV
Подвыборка цветности : 4:2:0
Битовая глубина : 8 бит
Тип развёртки : Прогрессивная
Метод сжатия : С потерями
Бит/(Пиксели*Кадры) : 0.230
Размер потока : 277 Мбайт (92%)
Библиотека кодирования : XviD 1.2.1 (UTC 2008-12-04)
Аудио
Идентификатор : 1
Формат : MPEG Audio
Версия формата : Version 1
Профиль формата : Layer 3
Идентификатор кодека : 55
Идентификатор кодека/Подсказка : MP3
Продолжительность : 24 м.
Вид битрейта : Постоянный
Битрейт : 128 Кбит/сек
Каналы : 2 канала
Частота : 48,0 КГц
Метод сжатия : С потерями
Размер потока : 21,9 Мбайт (7%)
Выравнивание : Соединение по промежуткам
Продолжительность промежутка : 40 мс. (1,00 видеокадр)
Время предзагрузки промежутка : 504 ms
picpicpicpicpicpic
Для увеличения картинки щелкните мышкой по превью

Этот торрент недоступен для скачивания без регистрации, однако доступен по публичной magnet-ссылке (источники с публичных трекеров). Перед использованием ссылки прочтите, пожалуйста Пользовательское соглашение, а также как можно дольше оставайтесь на раздаче! Для того, чтобы скачать сам торрент-файл (который видит больше источников), а также для того, чтобы поблагодарить релизера, вам необходимо зарегистрироваться. Если регистрироваться лень - вы можете также попробовать скачать релиз по нашим партнерским ссылкам ниже.

[underverse.su].t38612.torrent
Трекер: Зарегистрирован   [ 14.04.2014 12:35 ]  

Статус: проверено (by 90ytr90 at 15.04.2014 14:26)
Поблагодарили: пока никто не поблагодарил...
Тип торрента: публичный - доступные источники с открытых трекеров: 
Размер: 11,73 GB (занимает 2,68 DVDR, для записи нужно 3 болванки DVDR/RW)
 
 

Яндекс.Метрика powered by Sphinx


В Н И М А Н И Е
Сайт не распространяет и не хранит электронные версии произведений, а лишь бесплатно и без коммерческой выгоды (не требуя взамен платы,
SMS и т.д.) предоставляет доступ к создаваемому пользователями каталогу ссылок на торрент-файлы, которые содержат только списки хеш-сумм.
Убедительная просьба с жалобами обращаться напрямую к пользователю, разместившему торрент файл.

Вверх