Loading...
Error

Афера по-американски / American Hustle (Дэвид О. Расселл) [2013 г., драма, комедия, BDRip] Dub + Original + Sub (Rus,Eng) HQ Underverse

Статистика раздачи
Размер:  2,17 GB   |    Зарегистрирован:  2 года 7 месяцев   |    Скачан:  133 раза

Полного источника не было: 4 часа

Сидов:  0  |  0 KB/s  ]   Личеров:  0  |  0 KB/s  ]

* - сиды/пиры с внешних источников

   
 
Автор Сообщение

HQ Underverse 

11-Апр-2014 11:30

Афера по-американски / American Hustle


Год выпуска: 2013
Жанр: драма, комедия
Страна: США
Режиссер: Дэвид О. Расселл
В ролях: Кристиан Бэйл, Эми Адамс, Брэдли Купер, Дженнифер Лоуренс, Джереми Реннер, Луис С.К., Алессандро Нивола, Джек Хьюстон, Роберт Де Ниро, Майкл Пенья
Сюжет фильма:
В основе сюжета фильма реальная спецоперация, проводимая в конце 70-х — начале 80-х ФБР под кодовым названием Abscam. Она изначально была нацелена на расследование торговли краденым товаром. ФБР собиралось внедрить в преступную среду своих агентов под видом посредников, скупающих краденые шедевры для богатых коллекционеров Ближнего Востока. Впоследствии операция превратилась в изобличение коррупции на разных уровнях.

  • Мировая премьера: 12 декабря 2013
  • Российская премьера: 13 февраля 2014, «Top Film Distribution»

|
Качество видео: BDRip

Продолжительность: 02:17:59
Формат: avi
Видео: XviD, 720x304, 1788 kbps
Аудио #1: русский, дублированный [лицензия], AC3 5.1, 448 kbps
Аудио #2: английский, оригинал, AC3 5.1, 448 kbps (отдельным файлом: здесь)
Субтитры #1: внешние, SRT, английский
Субтитры #2: внешние, SRT, русский [Doctor Joker]

Код:

General
Complete name                    : Z:\windoza-share\Афера по американски\American.Hustle.2013.BDRip.XviD.AC3.Rus.D.HQ.Underverse.avi
Format                           : AVI
Format/Info                      : Audio Video Interleave
Format profile                   : OpenDML
File size                        : 2.17 GiB
Duration                         : 2h 17mn
Overall bit rate                 : 2 249 Kbps
Writing application              : VirtualDubMod 1.5.10.2 (build 2540/release)
Writing library                  : VirtualDubMod build 2540/release

Video
ID                               : 0
Format                           : MPEG-4 Visual
Format profile                   : Streaming Video@L1
Format settings, BVOP            : Yes
Format settings, QPel            : No
Format settings, GMC             : No warppoints
Format settings, Matrix          : Custom
Muxing mode                      : Packed bitstream
Codec ID                         : XVID
Codec ID/Hint                    : XviD
Duration                         : 2h 17mn
Bit rate                         : 1 789 Kbps
Width                            : 720 pixels
Height                           : 304 pixels
Display aspect ratio             : 2.35
Frame rate                       : 23.976 fps
Original frame rate              : 24.000 fps
Resolution                       : 24 bits
Colorimetry                      : 4:2:0
Scan type                        : Progressive
Bits/(Pixel*Frame)               : 0.341
Stream size                      : 1.72 GiB (80%)
Writing library                  : XviD 64

Audio
ID                               : 1
Format                           : AC-3
Format/Info                      : Audio Coding 3
Codec ID                         : 2000
Duration                         : 2h 17mn
Bit rate mode                    : Constant
Bit rate                         : 448 Kbps
Channel(s)                       : 6 channels
Channel positions                : Front: L C R, Surround: L R, LFE
Sampling rate                    : 48.0 KHz
Video delay                      : 16ms
Stream size                      : 442 MiB (20%)
Alignment                        : Split accross interleaves
Interleave, duration             : 42 ms (1.00 video frame)
Interleave, preload duration     : 500 ms

General
Complete name                    : Z:\windoza-share\Афера по американски\American.Hustle.2013.BDRip.XviD.AC3.Rus.D.HQ.Underverse.ENG.ac3
Format                           : AC-3
Format/Info                      : Audio Coding 3
File size                        : 442 MiB
Duration                         : 2h 18mn
Overall bit rate                 : 448 Kbps

Audio
Format                           : AC-3
Format/Info                      : Audio Coding 3
Duration                         : 2h 18mn
Bit rate mode                    : Constant
Bit rate                         : 448 Kbps
Channel(s)                       : 6 channels
Channel positions                : Front: L C R, Surround: L R, LFE
Sampling rate                    : 48.0 KHz
Stream size                      : 442 MiB (100%)

Релиз группы:

picpicpic
Для увеличения картинки щелкните мышкой по превью

Этот торрент недоступен для скачивания без регистрации, однако доступен по публичной magnet-ссылке (источники с публичных трекеров). Перед использованием ссылки прочтите, пожалуйста Пользовательское соглашение, а также как можно дольше оставайтесь на раздаче! Для того, чтобы скачать сам торрент-файл (который видит больше источников), а также для того, чтобы поблагодарить релизера, вам необходимо зарегистрироваться. Если регистрироваться лень - вы можете также попробовать скачать релиз по нашим партнерским ссылкам ниже.

[underverse.su].t38452.torrent
Трекер: Зарегистрирован   [ 11.04.2014 11:30 ]  

Статус: проверено (by HQ Underverse at 11.04.2014 11:30)
Поблагодарили: 6 человек
Тип торрента: публичный - доступные источники с открытых трекеров: 
Размер: 2,17 GB (занимает 1/2 DVDR, для записи нужно 1 болванка DVDR/RW)
 
 
Похожие темы
Форум Тема Автор Торрент Отв. Посл. сооб.
Зарубежное кино [DVDRip, Low-Res HDRip, и т.д.] Афера по-американски / American Hustle (Дэвид О. Расселл / David O. Russell) [2013 г., драма, комедия, BDRip-AVC] Dub + Original (Eng) + Sub (Rus, Eng) 90ytr90
0 | 0

0 | 1757

46

19.03.2014 17:28

Зарубежное кино [DVDRip, Low-Res HDRip, и т.д.] Афера по-американски / American Hustle (Дэвид О. Расселл / David O. Russell) [2013 г., драма, комедия, HDRip] Dub WeaSel
109 | 2

0 | 1940

74

19.03.2014 13:22

Зарубежное кино [DVDRip, Low-Res HDRip, и т.д.] Афера по-американски / American Hustle (Дэвид О. Расселл) [2013 г., драма, комедия, HDRip] Dub WeaSel
6 | 0

0 | 1601

30

19.03.2014 13:35

Зарубежное кино [DVDRip, Low-Res HDRip, и т.д.] Афера по-американски / American Hustle (Дэвид О. Расселл / David O. Russell) [2013 г., драма, комедия, BDRip] Dub + Original (Eng) 90ytr90
14 | 0

0 | 977

23

08.04.2014 04:55

Зарубежное кино [HDDVDRip / BDRip / WEB-DL / HDTV 1080/720р] Афера по-американски / American Hustle (Дэвид О. Расселл / David O. Russell) [2013 г., драма, комедия, BDRip 1080p] Dub + MVO (BaibaKo) + Original (Eng) + Sub (Rus, Eng) 90ytr90
3 | 0

0 | 1271

39

19.03.2014 17:40

Зарубежное кино [HDDVDRip / BDRip / WEB-DL / HDTV 1080/720р] Афера по-американски / American Hustle (Дэвид О. Расселл) [2013 г., драма, комедия BDRip 720p] Dub + Original (Eng) + Sub (Rus, Eng) WeaSel
2 | 0

0 | 1270

34

19.03.2014 13:43


Яндекс.Метрика powered by Sphinx


В Н И М А Н И Е
Сайт не распространяет и не хранит электронные версии произведений, а лишь бесплатно и без коммерческой выгоды (не требуя взамен платы,
SMS и т.д.) предоставляет доступ к создаваемому пользователями каталогу ссылок на торрент-файлы, которые содержат только списки хеш-сумм.
Убедительная просьба с жалобами обращаться напрямую к пользователю, разместившему торрент файл.

Вверх