Loading...
Error

Без срока давности [01-25 из 25] (Михаил Кабанов, Елена Епихина) [2012 г., криминал, детектив, SatRip]

Статистика раздачи
Размер:  13,45 GB   |    Зарегистрирован:  2 года 7 месяцев   |    Скачан:  10 раз

Полного источника не было: 3 месяца 21 день

Сидов:  0  |  0 KB/s  ]   Личеров:  0  |  0 KB/s  ]

* - сиды/пиры с внешних источников

   
 
Автор Сообщение

konopic Пол:Муж

09-Апр-2014 14:00

Без срока давности


Год выпуска: 2012
Жанр: криминал, детектив
Страна: Россия
Режиссер: Михаил Кабанов, Елена Епихина
В ролях: Сергей Марин (II), Роман Жирнов, Владимир Ерёмин, Валерий Шейман, Екатерина Юдина, Дмитрий Ендальцев, Анатолий Завьялов, Дмитрий Готсдинер, Александра Афанасьева-Шевчук, Ирина Сидорова, Александр Калугин (II), Алина Кизиярова, Любовь Фирсова, Руслан Ягудин, Дмитрий Фрид, Сергей Чугин, Александр Зельский, Елена Медведева, Виктор Мютников, Дмитрий Мазуров, Евгения Каверау, Николай Бендера, Ксения Ильясова, Денис Игнатов, Виктор Потапешкин, Евгений Сангаджиев, Елена Кутырева, Ксения Антонова (II), Артурс Пуполс, Наталья Коновалова, Лариса Маркина (II)
Сюжет фильма:
Группа оперативных работников Московского уголовного розыска во главе со следователем Аллой Шаровой специализируется на расследовании «мертвых дел» - преступлений, по разным причинам не раскрытых полицией на протяжении долгих лет. Каждый раз, когда появляются новые факты, новые свидетели, Алла Шарова и ее коллеги используют все возможности, чтобы воспроизвести и проанализировать события совершенных много лет назад преступлений. Следственная группа отрабатывает старые и новые версии, по крупицам восстанавливает ход событий, выходит на подозреваемых и вынуждает их под грузом улик совершить признание в содеянном.


Качество видео: SatRip

Продолжительность: 25 х ~00:48:00
Формат: AVI
Видео: 720x400, 25 fps, XviD, ~1400 kbps, 0.198 bit/pixel
Аудио: 48 kHz, MPEG Layer 3, 2 ch, 192 kbps

Код:

Общее
Полное имя : R:\Сериалы\Без срока давности (Нераскрытые дела) (2012) WEBDLRip 400p (RG Русские сериалы_Rutracker.org)\Без срока давности (Нераскрытые дела).(08.seriya).2013.XviD.WEBDLRip.400p.by.simka.avi
Формат : AVI
Формат/Информация : Audio Video Interleave
Размер файла : 551 Мбайт
Продолжительность : 47 м.
Общий поток : 1614 Кбит/сек
Программа кодирования : VirtualDubMod 1.5.10.3 | www.virtualdub-fr.org || (build 2550/release)
Библиотека кодирования : VirtualDubMod build 2550/release
Видео
Идентификатор : 0
Формат : MPEG-4 Visual
Профиль формата : Advanced Simple@L5
Параметр BVOP формата : 1
Параметр QPel формата : Нет
Параметр GMC формата : Без точки перехода
Параметр матрицы формата : Default (H.263)
Идентификатор кодека : XVID
Идентификатор кодека/Подсказка : XviD
Продолжительность : 47 м.
Битрейт : 1412 Кбит/сек
Ширина : 720 пикселей
Высота : 400 пикселей
Соотношение сторон : 16:9
Частота кадров : 25,000 кадров/сек
Цветовое пространство : YUV
Субдискретизация насыщенности : 4:2:0
Битовая глубина : 8 бит
Тип развёртки : Прогрессивная
Метод сжатия : С потерями
Бит/(Пиксели*Кадры) : 0.196
Размер потока : 482 Мбайт (87%)
Библиотека кодирования : XviD 1.2.1 (UTC 2008-12-04)
Аудио
Идентификатор : 1
Формат : MPEG Audio
Версия формата : Version 1
Профиль формата : Layer 3
Режим : Joint stereo
Расширение режима : MS Stereo
Идентификатор кодека : 55
Идентификатор кодека/Подсказка : MP3
Продолжительность : 47 м.
Вид битрейта : Постоянный
Битрейт : 192 Кбит/сек
Каналы : 2 канала
Частота : 48,0 КГц
Метод сжатия : С потерями
Размер потока : 65,6 Мбайт (12%)
Выравнивание : Соединение по промежуткам
Продолжительность промежутка : 40 мс. (1,00 видеокадр)
Время предзагрузки промежутка : 504 мс.
Библиотека кодирования : LAME3.99r
Настройки программы : -m j -V 4 -q 2 -lowpass 18.6 -b 192
picpicpicpicpic
Для увеличения картинки щелкните мышкой по превью

Этот торрент недоступен для скачивания без регистрации, однако доступен по публичной magnet-ссылке (источники с публичных трекеров). Перед использованием ссылки прочтите, пожалуйста Пользовательское соглашение, а также как можно дольше оставайтесь на раздаче! Для того, чтобы скачать сам торрент-файл (который видит больше источников), а также для того, чтобы поблагодарить релизера, вам необходимо зарегистрироваться. Если регистрироваться лень - вы можете также попробовать скачать релиз по нашим партнерским ссылкам ниже.

[underverse.su].t38289.torrent
Трекер: Зарегистрирован   [ 09.04.2014 14:00 ]  

Статус: проверено (by 90ytr90 at 09.04.2014 15:31)
Поблагодарили: 1 человек
Тип торрента: публичный - доступные источники с открытых трекеров: 
Размер: 13,45 GB (занимает 3,07 DVDR, для записи нужно 4 болванки DVDR/RW)
 
 

Яндекс.Метрика powered by Sphinx


В Н И М А Н И Е
Сайт не распространяет и не хранит электронные версии произведений, а лишь бесплатно и без коммерческой выгоды (не требуя взамен платы,
SMS и т.д.) предоставляет доступ к создаваемому пользователями каталогу ссылок на торрент-файлы, которые содержат только списки хеш-сумм.
Убедительная просьба с жалобами обращаться напрямую к пользователю, разместившему торрент файл.

Вверх