Loading...
Error

Участковый [1-24 из 24] (Александр Строев, Михаил Кабанов) [2011 г., детектив, SatRip]

Статистика раздачи
Размер:  11,74 GB   |    Зарегистрирован:  2 года 7 месяцев   |    Скачан:  8 раз

Полного источника не было: 8 месяцев

Сидов:  0  |  0 KB/s  ]   Личеров:  0  |  0 KB/s  ]

* - сиды/пиры с внешних источников

   
 
Автор Сообщение

konopic Пол:Муж

09-Апр-2014 13:47

Участковый


Год выпуска: 2011
Жанр: детектив
Страна: Россия, Star Media
Режиссер: Александр Строев, Михаил Кабанов
В ролях: Александр Бухаров, Владимир Гостюхин, Дмитрий Щербина, Борис Хвошнянский, Ольга Красько, Ирина Сидорова, Ольга Дибцева, Максим Заусалин, Максим Щёголев, Матвей Зубалевич, Артем Кобзев, Наталья Людскова, Юлия Маргулис, Ксения Непотребная, Евгений Фроленков, Павел Шингарев, Дмитрий Янышевский, Алла Малкова
Сюжет фильма:
"Новоселки" - сленговое название микрорайона на окраине столицы, в котором процветает преступность. Местные жители так привыкли к такому положению вещей, что кажется, уже никто и никогда не сможет заставить их поверить в силы правосудия. Но жизнь микрорайона меняется с приездом нового участкового Сергея Громова, бывшего старшего следователя убойного отдела... Сергей не любит вспоминать о своем прошлом, но работа оперативника научила его мгновенно оценивать ситуацию и принимать решения. Он не будет разгадывать ребусы свершившихся злодеяний, его задача – работа на опережение преступников…


Качество видео: SatRip

Продолжительность: 24 х~00:43:00
Формат: AVI
Видео: XviD, 720x400 (16:9), 25.000 fps, 1 461 Kbps (0.203 bit/pixel)
Аудио: MP3, 48.0 KHz, 2 ch, 128 Kbps, CBR

Код:

Общее
Полное имя                               : H:\Раздачи\SATRip\Участковый\Участковый.01.avi
Формат                                   : AVI
Формат/Информация                        : Audio Video Interleave
Размер файла                             : 501 Мбайт
Продолжительность                        : 43 м.
Общий поток                              : 1598 Кбит/сек
Программа кодирования                    : VirtualDubMod 1.5.10.3 | www.virtualdub-fr.org || (build 2550/release)
Библиотека кодирования                   : VirtualDubMod build 2550/release
Видео
Идентификатор                            : 0
Формат                                   : MPEG-4 Visual
Профиль формата                          : Advanced Simple@L5
Параметр BVOP формата                    : 2
Параметр QPel формата                    : Нет
Параметр GMC формата                     : Без точки перехода
Параметр матрицы формата                 : Default (MPEG)
Идентификатор кодека                     : XVID
Идентификатор кодека/Подсказка           : XviD
Продолжительность                        : 43 м.
Битрейт                                  : 1461 Кбит/сек
Ширина                                   : 720 пикселей
Высота                                   : 400 пикселей
Соотношение сторон                       : 16:9
Частота кадров                           : 25,000 кадров/сек
Цветовое пространство                    : YUV
Субдискретизация насыщенности            : 4:2:0
Битовая глубина                          : 8 бит
Тип развёртки                            : Прогрессивная
Метод сжатия                             : С потерями
Бит/(Пиксели*Кадры)                      : 0.203
Размер потока                            : 458 Мбайт (91%)
Библиотека кодирования                   : XviD 64
Аудио
Идентификатор                            : 1
Формат                                   : MPEG Audio
Версия формата                           : Version 1
Профиль формата                          : Layer 3
Идентификатор кодека                     : 55
Идентификатор кодека/Подсказка           : MP3
Продолжительность                        : 43 м.
Вид битрейта                             : Постоянный
Битрейт                                  : 128 Кбит/сек
Каналы                                   : 2 канала
Частота                                  : 48,0 КГц
Метод сжатия                             : С потерями
Размер потока                            : 40,1 Мбайт (8%)
Выравнивание                             : Соединение по промежуткам
Продолжительность промежутка             : 40  мс. (1,00 видеокадр)
Время предзагрузки промежутка            : 504  мс.
Библиотека кодирования                   : LAME3.98r
Настройки программы                      : -m s -V 4 -q 2 -lowpass 17 -b 128

picpicpicpic
Для увеличения картинки щелкните мышкой по превью

Этот торрент недоступен для скачивания без регистрации, однако доступен по публичной magnet-ссылке (источники с публичных трекеров). Перед использованием ссылки прочтите, пожалуйста Пользовательское соглашение, а также как можно дольше оставайтесь на раздаче! Для того, чтобы скачать сам торрент-файл (который видит больше источников), а также для того, чтобы поблагодарить релизера, вам необходимо зарегистрироваться. Если регистрироваться лень - вы можете также попробовать скачать релиз по нашим партнерским ссылкам ниже.

[underverse.su].t38288.torrent
Трекер: Зарегистрирован   [ 09.04.2014 13:47 ]  

Статус: проверено (by 90ytr90 at 09.04.2014 14:00)
Поблагодарили: пока никто не поблагодарил...
Тип торрента: публичный - доступные источники с открытых трекеров: 
Размер: 11,74 GB (занимает 2,68 DVDR, для записи нужно 3 болванки DVDR/RW)
 
 

Яндекс.Метрика powered by Sphinx


В Н И М А Н И Е
Сайт не распространяет и не хранит электронные версии произведений, а лишь бесплатно и без коммерческой выгоды (не требуя взамен платы,
SMS и т.д.) предоставляет доступ к создаваемому пользователями каталогу ссылок на торрент-файлы, которые содержат только списки хеш-сумм.
Убедительная просьба с жалобами обращаться напрямую к пользователю, разместившему торрент файл.

Вверх