Loading...
Error

Эйнштейн. Теория любви [1-4 из 4] (Елена Николаева) [2013 г., детектив, мелодрама, биография, DVDRip]

Статистика раздачи
Размер:  2,81 GB   |    Зарегистрирован:  2 года 7 месяцев   |    Скачан:  3 раза

Полного источника не было: 1 год 4 месяца

Сидов:  0  |  0 KB/s  ]   Личеров:  0  |  0 KB/s  ]

* - сиды/пиры с внешних источников

   
 
Автор Сообщение

konopic Пол:Муж

09-Апр-2014 10:56

Эйнштейн. Теория любви


Год выпуска: 2013
Жанр: детектив, мелодрама, биография
Страна: Россия, "ЭсЭф Продакшн"
Режиссер: Елена Николаева
В ролях: Дмитрий Певцов, Александр Балуев, Ольга Будина, Ольга Дроздова, Екатерина Молоховская, Ева Авеева, Иван Рудаков, Витас Эйзенах, Александр Лучинин, Марианна Шульц, Анжелика Каширина, Константин Стрельников
Сюжет фильма:
Великий физик всю свою жизнь был предан науке, в его жизни не было места романтическим отношениям, пока он не познакомился с Маргаритой Коненковой. Она стала единственной женщиной в его жизни, к которой он смог испытать очень сильные романтические чувства. Маргарита была одной из известных обольстительниц того времени. Под ее чарами находилось очень много знаменитых личностей той эпохи. Эйнштейн не уставал прикладывать массу усилий, чтобы снова и снова встретиться с любимой, и с огромным нетерпением ждал каждую их новую встречу. А при встречах он с особой радостью рассказывал ей обо всех своих открытиях и достижениях в области науки. Но даже в самых смелых мыслях гениальному физику не могло прийти в голову, что Маргарита, на самом деле, - сотрудник НКВД. Поэтому она записывала все услышанное, а потом отправляла записи в Россию, включая информацию о том, как продвигается ядерный проект...
Качество видео: DVDRip

Продолжительность: 4x~ 00:44:00
Формат: AVI
Видео: 720x400 (1.80:1), 25 fps, XViD ~2000 kbps avg, 0.27 bit/pixel
Аудио: 48 kHz, AC3 Dolby Digital, 2/0 (L,R) ch, ~192 kbps

Код:

Общее
Полное имя : Einshtein.teoriya.lubvi.2013.O.DVDRip_[New-Team]_by_avproh1.avi
Формат : AVI
Формат/Информация : Audio Video Interleave
Размер файла : 722 Мбайт
Продолжительность : 45 м.
Общий поток : 2201 Кбит/сек
Программа кодирования : VirtualDubModRus 1.5.10.2 (build 2542/release)
Библиотека кодирования : VirtualDubMod build 2542/release
Видео
Идентификатор : 0
Формат : MPEG-4 Visual
Профиль формата : Advanced Simple@L5
Параметр BVOP формата : 1
Параметр QPel формата : Нет
Параметр GMC формата : Без точки перехода
Параметр матрицы формата : Выборочная
Идентификатор кодека : XVID
Идентификатор кодека/Подсказка : XviD
Продолжительность : 45 м.
Битрейт : 2000 Кбит/сек
Ширина : 720 пикселей
Высота : 400 пикселей
Соотношение сторон : 16:9
Частота кадров : 25,000 кадров/сек
Цветовое пространство : YUV
Субдискретизация насыщенности : 4:2:0
Битовая глубина : 8 бит
Тип развёртки : Прогрессивная
Метод сжатия : С потерями
Бит/(Пиксели*Кадры) : 0.278
Размер потока : 656 Мбайт (91%)
Библиотека кодирования : XviD 73
Аудио
Идентификатор : 1
Формат : AC-3
Формат/Информация : Audio Coding 3
Расширение режима : CM (complete main)
Параметр Endianness формата : Big
Идентификатор кодека : 2000
Продолжительность : 45 м.
Вид битрейта : Постоянный
Битрейт : 192 Кбит/сек
Каналы : 2 канала
Расположение каналов : Front: L R
Частота : 48,0 КГц
Битовая глубина : 16 бит
Метод сжатия : С потерями
Размер потока : 63,0 Мбайт (9%)
Выравнивание : Разделение по промежуткам
Продолжительность промежутка : 40 мс. (1,00 видеокадр)
Время предзагрузки промежутка : 500 мс.
picpicpicpic
Для увеличения картинки щелкните мышкой по превью

Этот торрент недоступен для скачивания без регистрации, однако доступен по публичной magnet-ссылке (источники с публичных трекеров). Перед использованием ссылки прочтите, пожалуйста Пользовательское соглашение, а также как можно дольше оставайтесь на раздаче! Для того, чтобы скачать сам торрент-файл (который видит больше источников), а также для того, чтобы поблагодарить релизера, вам необходимо зарегистрироваться. Если регистрироваться лень - вы можете также попробовать скачать релиз по нашим партнерским ссылкам ниже.

[underverse.su].t38272.torrent
Трекер: Зарегистрирован   [ 09.04.2014 10:56 ]  

Статус: проверено (by 90ytr90 at 10.04.2014 15:09)
Поблагодарили: пока никто не поблагодарил...
Тип торрента: публичный - доступные источники с открытых трекеров: 
Размер: 2,81 GB (занимает 0,64 DVDR, для записи нужно 1 болванка DVDR/RW)
 
 

Яндекс.Метрика powered by Sphinx


В Н И М А Н И Е
Сайт не распространяет и не хранит электронные версии произведений, а лишь бесплатно и без коммерческой выгоды (не требуя взамен платы,
SMS и т.д.) предоставляет доступ к создаваемому пользователями каталогу ссылок на торрент-файлы, которые содержат только списки хеш-сумм.
Убедительная просьба с жалобами обращаться напрямую к пользователю, разместившему торрент файл.

Вверх