Loading...
Error

Охота на единорога (Владимир Лаптев) [1989 г., драма, военный, DVDRip]

Статистика раздачи
Размер:  1,09 GB   |    Зарегистрирован:  2 года 7 месяцев   |    Скачан:  9 раз

Полного источника не было: 1 год 2 месяца

Сидов:  0  |  0 KB/s  ]   Личеров:  0  |  0 KB/s  ]

* - сиды/пиры с внешних источников

   
 
Автор Сообщение

konopic Пол:Муж

09-Апр-2014 08:17

Охота на единорога


Год выпуска: 1989
Жанр: драма, военный
Страна: СССР, Свердловская киностудия
Режиссер: Владимир Лаптев
В ролях: Сергей Быстрицкий, Виталий Зикора, Виктор Соловьёв, Гедиминас Гирдвайнис, Юрий Ершов, Вадим Завьялов, Владимир Кабалин, Юрий Лазарев, Альгис Матулёнис, Виктор Рыбчинский, Владимир Фирсов, Вадим Яковлев, Виталий Яковлев, Анатолий Галиев...
Сюжет фильма:
Начало войны. Выпускник летного училища Тесленко летит ведомым у командира эскадрильи Грабаря. Их сбивают, и Тесленко оказывается в лагере при немецком аэродроме, где советские летчики с ограниченным запасом горючего служат живыми мишенями для немецких курсантов летной школы. Однако Тесленко удалось совершить побег. Добравшись до расположения советских войск, он был арестован и осужден по 58-й статье…

Качество видео: DVDRip

Продолжительность: 01:14:24
Формат: AVI
Видео: 688x528 (4:3), 25 fps, XviD ~ 1900 kbps avg, 0.209 bit/pixel
Аудио: 48 kHz, Dolby AC3 2.0, 192 kbps

Код:

Общее
Полное имя : Ohota.na.edinoroga.1989.DVDRip_[New-team]_by_AVP_Studio.avi
Формат : AVI
Формат/Информация : Audio Video Interleave
Размер файла : 1,09 Гбайт
Продолжительность : 1 ч. 14 м.
Общий поток : 2102 Кбит/сек
Программа кодирования : VirtualDubModRus 1.5.10.2 (build 2542/release)
Библиотека кодирования : VirtualDubMod build 2542/release

Видео
Идентификатор : 0
Формат : MPEG-4 Visual
Профиль формата : Advanced Simple@L5
Параметр BVOP формата : 1
Параметр QPel формата : Нет
Параметр GMC формата : Без точки перехода
Параметр матрицы формата : Выборочная
Идентификатор кодека : XVID
Идентификатор кодека/Подсказка : XviD
Продолжительность : 1 ч. 14 м.
Битрейт : 1900 Кбит/сек
Ширина : 688 пикселей
Высота : 528 пикселей
Соотношение сторон : 4:3
Частота кадров : 25,000 кадров/сек
Цветовое пространство : YUV
Субдискретизация насыщенности : 4:2:0
Битовая глубина : 8 бит
Тип развёртки : Прогрессивная
Метод сжатия : С потерями
Бит/(Пиксели*Кадры) : 0.209
Размер потока : 1011 Мбайт (90%)
Библиотека кодирования : XviD 73

Аудио
Идентификатор : 1
Формат : AC-3
Формат/Информация : Audio Coding 3
Расширение режима : CM (complete main)
Параметр Endianness формата : Big
Идентификатор кодека : 2000
Продолжительность : 1 ч. 14 м.
Вид битрейта : Постоянный
Битрейт : 192 Кбит/сек
Каналы : 2 канала
Расположение каналов : Front: L R
Частота : 48,0 КГц
Битовая глубина : 16 бит
Метод сжатия : С потерями
Размер потока : 102 Мбайт (9%)
Выравнивание : Разделение по промежуткам
Продолжительность промежутка : 40 мс. (1,00 видеокадр)
Время предзагрузки промежутка : 500 мс
Семпл: http://sendfile.su/965380

picpicpicpic
Для увеличения картинки щелкните мышкой по превью

Этот торрент недоступен для скачивания без регистрации, однако доступен по публичной magnet-ссылке (источники с публичных трекеров). Перед использованием ссылки прочтите, пожалуйста Пользовательское соглашение, а также как можно дольше оставайтесь на раздаче! Для того, чтобы скачать сам торрент-файл (который видит больше источников), а также для того, чтобы поблагодарить релизера, вам необходимо зарегистрироваться. Если регистрироваться лень - вы можете также попробовать скачать релиз по нашим партнерским ссылкам ниже.

[underverse.su].t38245.torrent
Трекер: Зарегистрирован   [ 09.04.2014 08:17 ]  

Статус: проверено (by 90ytr90 at 09.04.2014 19:38)
Поблагодарили: пока никто не поблагодарил...
Тип торрента: публичный - доступные источники с открытых трекеров: 
Размер: 1,09 GB (занимает 0,25 DVDR, для записи нужно 1 болванка DVDR/RW)
 
 

Яндекс.Метрика powered by Sphinx


В Н И М А Н И Е
Сайт не распространяет и не хранит электронные версии произведений, а лишь бесплатно и без коммерческой выгоды (не требуя взамен платы,
SMS и т.д.) предоставляет доступ к создаваемому пользователями каталогу ссылок на торрент-файлы, которые содержат только списки хеш-сумм.
Убедительная просьба с жалобами обращаться напрямую к пользователю, разместившему торрент файл.

Вверх