Loading...
Error

Торговый центр [1-60 из 60] (Игорь Войтулевич, Сергей Краснов, Сергей Пищиков) [2013 г., мелодрама, HDTVRip]

 
Автор Сообщение

konopic Пол:Муж

08-Апр-2014 17:05

Торговый центр


Год выпуска: 2013
Жанр: мелодрама
Страна: Россия
Режиссер: Игорь Войтулевич, Сергей Краснов, Сергей Пищиков
В ролях: Валерия Ланская (Елена Новикова), Сергей Жигунов (Эдуард Фадеев), Евгений Пронин (Олег Корнеев), Екатерина Кузнецова (Анна Фадеева), Андрей Казаков (Сергей Белецкий), Ксения Лаврова-Глинка (Марина Белецкая), Юрий Батурин (Игорь Белецкий), Анатолий Дзиваев (Ованес Маркарян)
Сюжет фильма:
Торговый центр – настоящее сердце любого современного города. Там всегда кипит жизнь – тысячи покупателей, десятки продавцов. Это еще и место для отдыха, развлечений и даже романтических свиданий. Но мало кто знает, какие страсти кипят там изо дня в день, какие тайны скрываются за табличками "Служебное помещение" и "Только для персонала" и на что толкают обитателей этих стен любовь, власть и деньги. На фоне жизни крупного торгового центра "Астория" в Ярославле, владельцем которого является бизнесмен Эдуард Фадеев, разворачиваются главные события и переплетаются истории взаимоотношений нескольких семей
Качество видео: HDTVRip

Продолжительность: 60х~ 00:45:00
Формат: AVI
Видео: 720x400 (16/9), 25.000 fps, 1 418 Kbps (0.197 bit/pixel)
Аудио: 48.0 KHz, 2 ch, 128 Kbps

Код:

Общее
Полное имя                               : I:\РАЗДАЧИ НА *другой трекер*\Торговый центр.2013.HDTVRip\Torgovyj.Centr.01.HDTVRip.*другой трекер*.avi
Формат                                   : AVI
Формат/Информация                        : Audio Video Interleave
Размер файла                             : 500 Мбайт
Продолжительность                        : 44 м.
Общий поток                              : 1555 Кбит/сек
Программа кодирования                    : VirtualDubMod 1.5.10.3 | www.virtualdub-fr.org || (build 2550/release)
Библиотека кодирования                   : VirtualDubMod build 2550/release
Видео
Идентификатор                            : 0
Формат                                   : MPEG-4 Visual
Профиль формата                          : Advanced Simple@L5
Параметр BVOP формата                    : 1
Параметр QPel формата                    : Нет
Параметр GMC формата                     : Без точки перехода
Параметр матрицы формата                 : Выборочная
Идентификатор кодека                     : XVID
Идентификатор кодека/Подсказка           : XviD
Продолжительность                        : 44 м.
Битрейт                                  : 1418 Кбит/сек
Ширина                                   : 720 пикселей
Высота                                   : 400 пикселей
Соотношение сторон                       : 16:9
Частота кадров                           : 25,000 кадров/сек
Цветовое пространство                    : YUV
Субдискретизация насыщенности            : 4:2:0
Битовая глубина                          : 8 бит
Тип развёртки                            : Прогрессивная
Метод сжатия                             : С потерями
Бит/(Пиксели*Кадры)                      : 0.197
Размер потока                            : 456 Мбайт (91%)
Библиотека кодирования                   : XviD 63
Аудио
Идентификатор                            : 1
Формат                                   : MPEG Audio
Версия формата                           : Version 1
Профиль формата                          : Layer 3
Режим                                    : Joint stereo
Расширение режима                        : MS Stereo
Идентификатор кодека                     : 55
Идентификатор кодека/Подсказка           : MP3
Продолжительность                        : 44 м.
Вид битрейта                             : Постоянный
Битрейт                                  : 128 Кбит/сек
Каналы                                   : 2 канала
Частота                                  : 48,0 КГц
Метод сжатия                             : С потерями
Размер потока                            : 41,1 Мбайт (8%)
Выравнивание                             : Соединение по промежуткам
Продолжительность промежутка             : 40  мс. (1,00 видеокадр)
Время предзагрузки промежутка            : 504  мс.
picpicpicpicpic
Для увеличения картинки щелкните мышкой по превью
[underverse.su].t38210.torrent
Трекер: Не зарегистрирован

Скачать

78 KB

Добавлен: 08.04.2014 17:03
Скачано: 0 раз  [ Список скачавших ]
   
 

Яндекс.Метрика powered by Sphinx


В Н И М А Н И Е
Сайт не распространяет и не хранит электронные версии произведений, а лишь бесплатно и без коммерческой выгоды (не требуя взамен платы,
SMS и т.д.) предоставляет доступ к создаваемому пользователями каталогу ссылок на торрент-файлы, которые содержат только списки хеш-сумм.
Убедительная просьба с жалобами обращаться напрямую к пользователю, разместившему торрент файл.

Вверх