Loading...
Error

ЗАГС [1-20 из 20] (Артем Насыбулин, Сергей Пищиков) [2013 г., мелодрама, WEB-DLRip]

Статистика раздачи
Размер:  5,49 GB   |    Зарегистрирован:  2 года 7 месяцев   |    Скачан:  2 раза

Полного источника не было: 1 год 8 месяцев

Сидов:  0  |  0 KB/s  ]   Личеров:  0  |  0 KB/s  ]

* - сиды/пиры с внешних источников

   
 
Автор Сообщение

konopic Пол:Муж

08-Апр-2014 16:56

ЗАГС


Год выпуска: 2013
Жанр: мелодрама
Страна: Россия
Режиссер: Артем Насыбулин, Сергей Пищиков
В ролях: Анастасия Бусыгина, Ольга Хохлова (II), Мария Кунах, Елена Афонина, Ксения Непотребная, Анастасия Сапожникова, Дмитрий Юмашев, Владимир Кебин, Артем Кашкин, Наталья Жернакова, Антон Юрьев, Дмитрий Оленцов, Николай Сороканов, Милена Нестерова
Сюжет фильма:
Главные герои сериала "ЗАГС" – работники данного государственного органа. Сюжет – истории посетителей, так или иначе связанные с этими самыми государственными состояниями.
А ситуации, как и состояния, могут быть очень разными. От самых счастливых до трагических.
Качество видео: WEB-DLRip

Продолжительность: 20х~0:24:00
Формат: AVI
Видео: 720x400 (1.80:1), 25 fps, XviD build 50 ~1500 kbps avg, 0.208 bit/pixel
Аудио: 48 kHz, MPEG Layer 3, 2 ch, ~128.00 kbps avg

Код:

Общее
Полное имя                       : E:\ФИЛЬМЫ\ЗАГС SATRip_XviD\Zags (01.seriya.iz.20).WEBDL.XviD_by_Серый1779.avi
Формат                           : AVI
Формат/Информация                : Audio Video Interleave
Размер файла                     : 260 Мбайт
Продолжительность                : 23 м.
Общий поток                      : 1516 Кбит/сек
Программа кодирования            : VirtualDubMod 1.5.10.3 | www.virtualdub-fr.org || (build 2550/release)
Библиотека кодирования           : VirtualDubMod build 2550/release
Видео
Идентификатор                    : 0
Формат                           : MPEG-4 Visual
Профиль формата                  : Advanced Simple@L5
Параметр BVOP формата            : 2
Параметр QPel формата            : Нет
Параметр GMC формата             : Без точки перехода
Параметр матрицы формата         : Выборочная
Идентификатор кодека             : XVID
Идентификатор кодека/Подсказка   : XviD
Продолжительность                : 23 м.
Битрейт                          : 1500 Кбит/сек
Ширина                           : 720 пикс.
Высота                           : 400 пикс.
Соотношение сторон               : 16:9
Частота кадров                   : 25,000 кадр/сек
Цветовое пространство            : YUV
Подвыборка цветности             : 4:2:0
Битовая глубина                  : 8 бит
Тип развёртки                    : Прогрессивная
Метод сжатия                     : С потерями
Бит/(Пиксели*Кадры)              : 0.208
Размер потока                    : 257 Мбайт (99%)
Библиотека кодирования           : XviD 1.2.1 (UTC 2008-12-04)
Аудио
Идентификатор                    : 1
Формат                           : MPEG Audio
Версия формата                   : Version 1
Профиль формата                  : Layer 3
Идентификатор кодека             : 55
Идентификатор кодека/Подсказка   : MP3
Продолжительность                : 1 м. 55 с.
Вид битрейта                     : Постоянный
Битрейт                          : 128 Кбит/сек
Каналы                           : 2 канала
Частота                          : 48,0 КГц
Метод сжатия                     : С потерями
Размер потока                    : 1,76 Мбайт (1%)
Выравнивание                     : Разделение по промежуткам
Продолжительность промежутка     : 500  мс. (12,50 видеокадров)
Время предзагрузки промежутка    : 500 ms
Семпл: http://rusfolder.com/37544013

picpicpicpicpic
Для увеличения картинки щелкните мышкой по превью

Этот торрент недоступен для скачивания без регистрации, однако доступен по публичной magnet-ссылке (источники с публичных трекеров). Перед использованием ссылки прочтите, пожалуйста Пользовательское соглашение, а также как можно дольше оставайтесь на раздаче! Для того, чтобы скачать сам торрент-файл (который видит больше источников), а также для того, чтобы поблагодарить релизера, вам необходимо зарегистрироваться. Если регистрироваться лень - вы можете также попробовать скачать релиз по нашим партнерским ссылкам ниже.

[underverse.su].t38209.torrent
Трекер: Зарегистрирован   [ 08.04.2014 16:56 ]  

Статус: проверено (by 90ytr90 at 09.04.2014 14:32)
Поблагодарили: пока никто не поблагодарил...
Тип торрента: публичный - доступные источники с открытых трекеров: 
Размер: 5,49 GB (занимает 1,25 DVDR, для записи нужно 2 болванки DVDR/RW)
 
 

Яндекс.Метрика powered by Sphinx


В Н И М А Н И Е
Сайт не распространяет и не хранит электронные версии произведений, а лишь бесплатно и без коммерческой выгоды (не требуя взамен платы,
SMS и т.д.) предоставляет доступ к создаваемому пользователями каталогу ссылок на торрент-файлы, которые содержат только списки хеш-сумм.
Убедительная просьба с жалобами обращаться напрямую к пользователю, разместившему торрент файл.

Вверх