Loading...
Error

Наградить (посмертно) (Борис Григорьев) [1986 г., боевик, криминал, DVDRip-AVC]

Статистика раздачи
Размер:  1,46 GB   |    Зарегистрирован:  2 года 7 месяцев   |    Скачан:  5 раз

Полного источника не было: 15 дней

Сидов:  0  |  0 KB/s  ]   Личеров:  0  |  0 KB/s  ]

* - сиды/пиры с внешних источников

   
 
Автор Сообщение

konopic Пол:Муж

08-Апр-2014 13:16

Наградить (посмертно)


Год выпуска: 1986
Жанр: боевик, криминал
Страна: СССР
Режиссер: Борис Григорьев
В ролях: Александр Тимошкин, Евгений Леонов-Гладышев, Михаил Жигалов, Марина Яковлева, Владимир Стеклов, Георгий Юматов, Юрий Катин-Ярцев, Георгий Дрозд, Марина Левтова, Владимир Сичкарь, Ян Янакиев, Алексей Локтев...
Сюжет фильма:
Зимой 1945 года фронтовой разведчик Юрий Соснин, получив контузию, оказывается в госпитале. Сочтя его погибшим, Юрия наградили посмертно. После выписки герой, утратив память, стал работать шофером. Узнав о его судьбе, жулики вовлекают Юрия в свою шайку, и принуждают угнать машину. Но сотрудник милиции, узнав в Юрии своего однополчанина, помогает ему восстановить прошлое и затем привлекает к участию в операции по уничтожению банды…

  • Мировая премьера: 13 апреля 1987


Качество видео: DVDRip-AVC

Продолжительность: 01:23:04
Формат: MKV
Видео: 738x404 (1,85:1), 25 fps, H264 ~ 2315 kbps avg, 0.333 bit/pixel
Аудио: 48 kHz, Dolby Digital AC3 2.0, 192 kbps

Код:

Общее
Полное имя : Nagradit.posmertno.1986.DVDRip-AVC_[New-team]_by_AVP_Studio.mkv
Формат : Matroska
Версия формата : Version 2
Размер файла : 1,46 Гбайт
Продолжительность : 1 ч. 23 м.
Общий поток : 2509 Кбит/сек
Дата кодирования : UTC 2014-02-27 03:04:00
Программа кодирования : mkvmerge v6.1.0 ('Old Devil') built on Mar 4 2013 09:10:42
Библиотека кодирования : libebml v1.3.0 + libmatroska v1.4.0

Видео
Идентификатор : 1
Формат : AVC
Формат/Информация : Advanced Video Codec
Профиль формата : High@L4.1
Параметр CABAC формата : Да
Параметр ReFrames формата : 8 кадров
Идентификатор кодека : V_MPEG4/ISO/AVC
Продолжительность : 1 ч. 23 м.
Битрейт : 2315 Кбит/сек
Ширина : 688 пикселей
Высота : 404 пикселя
Соотношение сторон : 1,85:1
Режим частоты кадров : Постоянный
Частота кадров : 25,000 кадров/сек
Цветовое пространство : YUV
Субдискретизация насыщенности : 4:2:0
Битовая глубина : 8 бит
Тип развёртки : Прогрессивная
Бит/(Пиксели*Кадры) : 0.333
Размер потока : 1,32 Гбайт (90%)
Библиотека кодирования : x264 core 138 r2356 a1d3d17
Настройки программы : cabac=1 / ref=8 / deblock=1:-2:-1 / analyse=0x3:0x113 / me=umh / subme=10 / psy=1 / psy_rd=1.00:0.05 / mixed_ref=1 / me_range=32 / chroma_me=1 / trellis=2 / 8x8dct=1 / cqm=0 / deadzone=21,11 / fast_pskip=0 / chroma_qp_offset=-3 / threads=3 / lookahead_threads=1 / sliced_threads=0 / nr=0 / decimate=0 / interlaced=0 / bluray_compat=0 / constrained_intra=0 / bframes=8 / b_pyramid=2 / b_adapt=2 / b_bias=0 / direct=3 / weightb=1 / open_gop=0 / weightp=2 / keyint=250 / keyint_min=25 / scenecut=40 / intra_refresh=0 / rc=2pass / mbtree=0 / bitrate=2315 / ratetol=1.0 / qcomp=0.60 / qpmin=0 / qpmax=69 / qpstep=4 / cplxblur=20.0 / qblur=0.5 / ip_ratio=1.40 / pb_ratio=1.30 / aq=1:1.00
Default : Да
Forced : Нет

Аудио
Идентификатор : 2
Формат : AC-3
Формат/Информация : Audio Coding 3
Расширение режима : CM (complete main)
Параметр Endianness формата : Big
Идентификатор кодека : A_AC3
Продолжительность : 1 ч. 23 м.
Вид битрейта : Постоянный
Битрейт : 192 Кбит/сек
Каналы : 2 канала
Расположение каналов : Front: L R
Частота : 48,0 КГц
Битовая глубина : 16 бит
Метод сжатия : С потерями
Размер потока : 114 Мбайт (8%)
Default : Да
Forced : Нет
Семпл: http://sendfile.su/946646

picpicpicpic
Для увеличения картинки щелкните мышкой по превью

Этот торрент недоступен для скачивания без регистрации, однако доступен по публичной magnet-ссылке (источники с публичных трекеров). Перед использованием ссылки прочтите, пожалуйста Пользовательское соглашение, а также как можно дольше оставайтесь на раздаче! Для того, чтобы скачать сам торрент-файл (который видит больше источников), а также для того, чтобы поблагодарить релизера, вам необходимо зарегистрироваться. Если регистрироваться лень - вы можете также попробовать скачать релиз по нашим партнерским ссылкам ниже.

[underverse.su].t38183.torrent
Трекер: Зарегистрирован   [ 08.04.2014 13:16 ]  

Статус: проверено (by Паукан at 08.04.2014 17:55)
Поблагодарили: пока никто не поблагодарил...
Тип торрента: публичный - доступные источники с открытых трекеров: 
Размер: 1,46 GB (занимает 1/3 DVDR, для записи нужно 1 болванка DVDR/RW)
 
 
Похожие темы
Форум Тема Автор Торрент Отв. Посл. сооб.
Кино СССР Наградить (посмертно) (Борис Григорьев) [1986 г., драма, военный, DVDRip] матроскин
1 | 0

1 | 566

1

08.06.2013 08:09


Яндекс.Метрика powered by Sphinx


В Н И М А Н И Е
Сайт не распространяет и не хранит электронные версии произведений, а лишь бесплатно и без коммерческой выгоды (не требуя взамен платы,
SMS и т.д.) предоставляет доступ к создаваемому пользователями каталогу ссылок на торрент-файлы, которые содержат только списки хеш-сумм.
Убедительная просьба с жалобами обращаться напрямую к пользователю, разместившему торрент файл.

Вверх