Loading...
Error

Остров ржавого генерала (Валентин Ховенко) [1988 г., фантастика, семейный, DVDRip]

Статистика раздачи
Размер:  746 MB   |    Зарегистрирован:  2 года 7 месяцев   |    Скачан:  16 раз

Полного источника не было: 6 месяцев

Сидов:  0  |  0 KB/s  ]   Личеров:  0  |  0 KB/s  ]

* - сиды/пиры с внешних источников

   
 
Автор Сообщение

konopic Пол:Муж

08-Апр-2014 08:54

Остров ржавого генерала


Год выпуска: 1988
Жанр: фантастика, семейный
Страна: СССР, ТО Экран
Режиссер: Валентин Ховенко
В ролях: Екатерина Прижбиляк (Алиса Селезнева), Александр Леньков (Баба Яга), Михаил Данилов (режиссёр), Людмила Артемьева (Светлана), Сергей Соколов (техник), Сергей Скрипкин (робот Поля), Владимир Балон (Ржавый Генерал)...
Сюжет фильма:
По повести Кира Булычева «Миллион приключений». Московская школьница XXI века Алиса Селезнёва, снимающаяся в фильме-сказке, становится героиней необыкновенных приключений. В это время при раскопках обнаруживают старых боевых роботов, их отправляют на переплавку, но по дороге по морю, они пропадают. Оказывается, они не полностью утратили свои военные способности и смогли сбежать, высадиться на необитаемом острове и начать подготовку к захвату человечества. Отлучившись в один из дней со съёмок, Алиса попадает к ним в плен…

Качество видео: DVDRip

Продолжительность: 01:06:02
Формат: AVI
Видео: 640x480 (4:3), 23,976 fps, XviD ~ 1442 kbps avg, 0.196 bit/pixel
Аудио: 48 kHz, MP3 2.0, 128 kbps

Код:

Общее
Полное имя : Ostrov.rzhavogo.generala.1988.DVDRip_[New-team]_by_AVP_Studio.avi
Формат : AVI
Формат/Информация : Audio Video Interleave
Размер файла : 746 Мбайт
Продолжительность : 1 ч. 6 м.
Общий поток : 1580 Кбит/сек
Программа кодирования : VirtualDubModRus 1.5.10.2 (build 2542/release)
Библиотека кодирования : VirtualDubMod build 2542/release

Видео
Идентификатор : 0
Формат : MPEG-4 Visual
Профиль формата : Advanced Simple@L5
Параметр BVOP формата : 1
Параметр QPel формата : Нет
Параметр GMC формата : Без точки перехода
Параметр матрицы формата : Выборочная
Идентификатор кодека : XVID
Идентификатор кодека/Подсказка : XviD
Продолжительность : 1 ч. 6 м.
Битрейт : 1442 Кбит/сек
Ширина : 640 пикселей
Высота : 480 пикселей
Соотношение сторон : 4:3
Частота кадров : 23,976 кадра/сек
Цветовое пространство : YUV
Субдискретизация насыщенности : 4:2:0
Битовая глубина : 8 бит
Тип развёртки : Прогрессивная
Метод сжатия : С потерями
Бит/(Пиксели*Кадры) : 0.196
Размер потока : 681 Мбайт (91%)
Библиотека кодирования : XviD 73

Аудио
Идентификатор : 1
Формат : MPEG Audio
Версия формата : Version 1
Профиль формата : Layer 3
Режим : Joint stereo
Расширение режима : MS Stereo
Идентификатор кодека : 55
Идентификатор кодека/Подсказка : MP3
Продолжительность : 1 ч. 6 м.
Вид битрейта : Постоянный
Битрейт : 128 Кбит/сек
Каналы : 2 канала
Частота : 48,0 КГц
Метод сжатия : С потерями
Размер потока : 60,5 Мбайт (8%)
Выравнивание : Соединение по промежуткам
Продолжительность промежутка : 42 мс. (1,00 видеокадр)
Время предзагрузки промежутка : 504 мс
Семпл: http://sendfile.su/960965

picpicpicpic
Для увеличения картинки щелкните мышкой по превью

Этот торрент недоступен для скачивания без регистрации, однако доступен по публичной magnet-ссылке (источники с публичных трекеров). Перед использованием ссылки прочтите, пожалуйста Пользовательское соглашение, а также как можно дольше оставайтесь на раздаче! Для того, чтобы скачать сам торрент-файл (который видит больше источников), а также для того, чтобы поблагодарить релизера, вам необходимо зарегистрироваться. Если регистрироваться лень - вы можете также попробовать скачать релиз по нашим партнерским ссылкам ниже.

[underverse.su].t38164.torrent
Трекер: Зарегистрирован   [ 08.04.2014 08:54 ]  

Статус: # сомнительно (by Паукан at 08.04.2014 17:42)
Поблагодарили: 1 человек
Тип торрента: публичный - доступные источники с открытых трекеров: 
Размер: 746 MB (занимает 0,17 DVDR, для записи нужно 1 болванка DVDR/RW)
 
 


Последний раз редактировалось: konopic (14.04.2014 11:13), всего редактировалось 1 раз

Паукан Пол:Муж

08-Апр-2014 17:43

Присутствует логотип. Это точно DVDRip?

Яндекс.Метрика powered by Sphinx


В Н И М А Н И Е
Сайт не распространяет и не хранит электронные версии произведений, а лишь бесплатно и без коммерческой выгоды (не требуя взамен платы,
SMS и т.д.) предоставляет доступ к создаваемому пользователями каталогу ссылок на торрент-файлы, которые содержат только списки хеш-сумм.
Убедительная просьба с жалобами обращаться напрямую к пользователю, разместившему торрент файл.

Вверх