Loading...
Error

Его батальон (Александр Карпов) [1989 г., военный, драма, SatRip]

Статистика раздачи
Размер:  2,19 GB   |    Зарегистрирован:  2 года 7 месяцев   |    Скачан:  13 раз

Полного источника не было: 11 месяцев

Сидов:  0  |  0 KB/s  ]   Личеров:  0  |  0 KB/s  ]

* - сиды/пиры с внешних источников

   
 
Автор Сообщение

konopic Пол:Муж

08-Апр-2014 08:30

Его батальон


Год выпуска: 1989
Жанр: военный, драма
Страна: СССР, Беларусьфильм
Режиссер: Александр Карпов
В ролях: Виталий Зикора, Анатолий Ведёнкин, Любовь Германова, Валерий Гатаев, Андрей Кашкер, Игорь Ленёв, Дмитрий Матвеев, Игорь Неупокоев, Борис Руднев, Валерий Филатов, Джамбул Худайбергенов, Роман Хомятов, Вадим Яковлев, Сергей Приселков, Александр Кашперов, Владимир Станкевич, Саги Ашимов, Александр Беспалый, Валерий Бусыгин, Станислав Вилькин, Владимир Гидлевский, Эдуард Горячий, Владимир Грицевский, Анатолий Гурьев, Леонид Данчишин. Владимир Марченко, Андрей Попков, Юрий Шульга, Пётр Юрченков старший, Михаил Могилевский, Игорь Николаев, Сергей Романовский, Евгений Ромашко, Сергей Чугай. Виктор Рыбчинский...
Сюжет фильма:
Комбат Волошин получает приказ взять высоту пока немцы еще не укрепились, но наступление «выдохлось» и высота осталась у немцев. Штурмовать высоту теперь Волошин считает самоубийством для батальона. Но командир полка приказывает батальону Волошина идти в пекло, а когда комбат противится бессмысленной гибели людей, заменяет его более послушным и исполнительным Маркиным…
Утром солдаты отправляются в бой. Силы не равны, и наших солдат неизбежно перебьют минометным огнем. Волошин принимает решение об отступлении, за которое ему придется отвечать перед командованием. Но он не боится этого, для него важнее спасти жизни своих людей…


Качество видео: SatRip

Продолжительность: 02:11:42 (01:03:52 + 01:07:50)
Формат: AVI
Видео: 720x528 (2,35:1), 25 fps, XviD ~ 2176 kbps avg, 0.229 bit/pixel
Аудио: 48 kHz, Dolby Digital AC3 2.0, 192 kbps

Код:

Общее
Полное имя : Ego.batal'on.1989.SATRip_[New-team]_by_AVP_Studio�1.avi
Формат : AVI
Формат/Информация : Audio Video Interleave
Размер файла : 1,06 Гбайт
Продолжительность : 1 ч. 3 м.
Общий поток : 2378 Кбит/сек
Программа кодирования : VirtualDubModRus 1.5.10.2 (build 2542/release)
Библиотека кодирования : VirtualDubMod build 2542/release

Видео
Идентификатор : 0
Формат : MPEG-4 Visual
Профиль формата : Advanced Simple@L5
Параметр BVOP формата : 1
Параметр QPel формата : Нет
Параметр GMC формата : Без точки перехода
Параметр матрицы формата : Выборочная
Идентификатор кодека : XVID
Идентификатор кодека/Подсказка : XviD
Продолжительность : 1 ч. 3 м.
Битрейт : 2176 Кбит/сек
Ширина : 720 пикселей
Высота : 528 пикселей
Соотношение сторон : 4:3
Частота кадров : 25,000 кадров/сек
Цветовое пространство : YUV
Субдискретизация насыщенности : 4:2:0
Битовая глубина : 8 бит
Тип развёртки : Прогрессивная
Метод сжатия : С потерями
Бит/(Пиксели*Кадры) : 0.229
Размер потока : 994 Мбайт (92%)
Библиотека кодирования : XviD 73

Аудио
Идентификатор : 1
Формат : AC-3
Формат/Информация : Audio Coding 3
Расширение режима : CM (complete main)
Параметр Endianness формата : Big
Идентификатор кодека : 2000
Продолжительность : 1 ч. 3 м.
Вид битрейта : Постоянный
Битрейт : 192 Кбит/сек
Каналы : 2 канала
Расположение каналов : Front: L R
Частота : 48,0 КГц
Битовая глубина : 16 бит
Метод сжатия : С потерями
Размер потока : 87,7 Мбайт (8%)
Выравнивание : Разделение по промежуткам
Продолжительность промежутка : 40 мс. (1,00 видеокадр)
Время предзагрузки промежутка : 500 мс
Семпл: http://sendfile.su/962986

picpicpicpic
Для увеличения картинки щелкните мышкой по превью

Этот торрент недоступен для скачивания без регистрации, однако доступен по публичной magnet-ссылке (источники с публичных трекеров). Перед использованием ссылки прочтите, пожалуйста Пользовательское соглашение, а также как можно дольше оставайтесь на раздаче! Для того, чтобы скачать сам торрент-файл (который видит больше источников), а также для того, чтобы поблагодарить релизера, вам необходимо зарегистрироваться. Если регистрироваться лень - вы можете также попробовать скачать релиз по нашим партнерским ссылкам ниже.

[underverse.su].t38162.torrent
Трекер: Зарегистрирован   [ 08.04.2014 08:30 ]  

Статус: проверено (by Паукан at 08.04.2014 17:46)
Поблагодарили: пока никто не поблагодарил...
Тип торрента: публичный - доступные источники с открытых трекеров: 
Размер: 2,19 GB (занимает 1/2 DVDR, для записи нужно 1 болванка DVDR/RW)
 
 

Яндекс.Метрика powered by Sphinx


В Н И М А Н И Е
Сайт не распространяет и не хранит электронные версии произведений, а лишь бесплатно и без коммерческой выгоды (не требуя взамен платы,
SMS и т.д.) предоставляет доступ к создаваемому пользователями каталогу ссылок на торрент-файлы, которые содержат только списки хеш-сумм.
Убедительная просьба с жалобами обращаться напрямую к пользователю, разместившему торрент файл.

Вверх