Loading...
Error

Тринадцать (13) (1-24 серия из 24) (Иван Щёголев, Михаил Кабанов, Григорий Фёдоров) [2014 г., Mистика, SatRip]

Статистика раздачи
Размер:  12,68 GB   |    Зарегистрирован:  2 года 7 месяцев   |    Скачан:  9 раз

Полного источника не было: 1 месяц 25 дней

Сидов:  0  |  0 KB/s  ]   Личеров:  0  |  0 KB/s  ]

* - сиды/пиры с внешних источников

   
 
Автор Сообщение

nemos Пол:Муж

07-Апр-2014 17:05

Тринадцать (13)


Год выпуска: 2014
Жанр: Mистика
Страна: Россия
Режиссер: Иван Щёголев, Михаил Кабанов, Григорий Фёдоров
В ролях: Антон Феоктистов, Елена Полянская, Анна Данькова, Александр Карпов, Александр Пашков, Татьяна Мошкова, Сергей Клановский, Андрей Бестужев, Елена Коллегова, Денис Варенов, Маргарита Бугаева, Александр Баринов, Александр Федичкин, Анатолий Завьялов, Кристина Ионина, Светлана Бельская, Мария Болонкина
Сюжет фильма:
Газета «13» пишет о необъяснимом: НЛО, привидениях, домовых, русалках, сглазе, приметах… Эти явления и станут главными событиями мистического сериала «13», повествующего о жизни сотрудников издания. Журналисты относятся к своей работе и всему происходящему по-разному. Кто-то искренне верит в существование всего того, о чем пишет, а кто-то, наоборот, скептик и зарабатывает на нездоровом интересе аудитории. Главный герой, молодой журналист Игорь Ракитин, качается как маятник. Одни истории доказывают ему существование сверхъестественного, другие разубеждают, открывая бытовую подноготную, третьи так и остаются загадкам
Качество видео: SatRip

Продолжительность: 00:44:31 серия
Формат: AVI
Видео: DivX, 720x400, 1500 kbps
Аудио: русский, MP3 2.0, 128 kbps

Код:

C:\Users\Санёк\Desktop\Trinadcat.01.SATRip.avi
   General
      Complete name : C:\Users\Санёк\Desktop\Trinadcat.01.SATRip.avi
      Format : AVI
      Format/Info : Audio Video Interleave
      File size : 522 MiB
      Duration : 44mn 31s
      Overall bit rate : 1 638 Kbps
      Writing library : VirtualDub build 35491/release
   Video #0
      ID : 0
      Format : MPEG-4 Visual
      Format settings, BVOP : 1
      Format settings, QPel : No
      Format settings, GMC : No warppoints
      Format settings, Matrix : Default (H.263)
      Muxing mode : Packed bitstream
      Codec ID : DX50
      Codec ID/Hint : DivX 5
      Duration : 44mn 31s
      Bit rate : 1 500 Kbps
      Width : 720 pixels
      Height : 400 pixels
      Display aspect ratio : 16:9
      Frame rate : 25.000 fps
      Color space : YUV
      Chroma subsampling : 4:2:0
      Bit depth : 8 bits
      Scan type : Progressive
      Compression mode : Lossy
      Bits/(Pixel*Frame) : 0.208
      Stream size : 478 MiB (92%)
      Writing library : DivX 6.8.5 (UTC 2009-08-20)
   Audio #1
      ID : 1
      Format : MPEG Audio
      Format version : Version 1
      Format profile : Layer 3
      Mode : Joint stereo
      Mode extension : MS Stereo
      Codec ID : 55
      Codec ID/Hint : MP3
      Duration : 44mn 31s
      Bit rate mode : Constant
      Bit rate : 128 Kbps
      Channel(s) : 2 channels
      Sampling rate : 48.0 KHz
      Compression mode : Lossy
      Stream size : 40.8 MiB (8%)
      Alignment : Split accross interleaves
      Interleave, duration : 40 ms (1.00 video frame)
      Interleave, preload duration : 500 ms
picpicpicpicpicpicpicpicpicpicpic
Для увеличения картинки щелкните мышкой по превью

Этот торрент недоступен для скачивания без регистрации, однако доступен по публичной magnet-ссылке (источники с публичных трекеров). Перед использованием ссылки прочтите, пожалуйста Пользовательское соглашение, а также как можно дольше оставайтесь на раздаче! Для того, чтобы скачать сам торрент-файл (который видит больше источников), а также для того, чтобы поблагодарить релизера, вам необходимо зарегистрироваться. Если регистрироваться лень - вы можете также попробовать скачать релиз по нашим партнерским ссылкам ниже.

[underverse.su].t39160.torrent
Трекер: Зарегистрирован   [ 24.04.2014 16:31 ]  

Статус: проверено (by 90ytr90 at 24.04.2014 17:28)
Поблагодарили: 3 человека
Тип торрента: публичный - доступные источники с открытых трекеров: 
Размер: 12,68 GB (занимает 2,9 DVDR, для записи нужно 3 болванки DVDR/RW)
 
 
Похожие темы
Форум Тема Автор Торрент Отв. Посл. сооб.
Зарубежное кино [DVD / HDDVD / BD / Remux] Тринадцать дней / Thirteen Days (Роджер Дональдсон / Roger Donaldson) [2000, триллер, драма, история, Blu-ray Disc (custom) 1080p] uzi2009
1 | 0

0 | 376

1

10.04.2014 08:08

Зарубежное кино [HDDVDRip / BDRip / WEB-DL / HDTV 1080/720р] Тринадцать привидений / Thir13en Ghosts (Стив Бек) [2001 г., Ужасы, BDRip 720p] MVO (Rus) + Original (Eng) Ведьмочка
1 | 1

0 | 882

5

27.06.2014 22:33



Последний раз редактировалось: nemos (06.11.2014 09:11), всего редактировалось 11 раз(а)

nemos Пол:Муж

08-Апр-2014 14:07

Внимание! Данная раздача обновлена до 10-ой серии.

nemos Пол:Муж

15-Апр-2014 19:13

Внимание! Данная раздача обновлена до 24-ой серии.

Яндекс.Метрика powered by Sphinx


В Н И М А Н И Е
Сайт не распространяет и не хранит электронные версии произведений, а лишь бесплатно и без коммерческой выгоды (не требуя взамен платы,
SMS и т.д.) предоставляет доступ к создаваемому пользователями каталогу ссылок на торрент-файлы, которые содержат только списки хеш-сумм.
Убедительная просьба с жалобами обращаться напрямую к пользователю, разместившему торрент файл.

Вверх