Loading...
Error

Мертвое сердце (4 серии из 4) (Артур Румынский) [2014 г., Криминал, мелодрама, SatRip]

Статистика раздачи
Размер:  2,15 GB   |    Зарегистрирован:  2 года 7 месяцев   |    Скачан:  12 раз

Полного источника не было: 1 год 6 месяцев

Сидов:  0  |  0 KB/s  ]   Личеров:  0  |  0 KB/s  ]

* - сиды/пиры с внешних источников

   
 
Автор Сообщение

nemos Пол:Муж

07-Апр-2014 05:35

Мертвое сердце


Год выпуска: 2014
Жанр: Криминал, мелодрама
Страна: Россия
Режиссер: Артур Румынский
В ролях: Михаил Евланов, Евгений Воловенко, Мария Гузеева, Мария Киреева, Руслан Ягудин, Алексей Рыжков, Константин Адаев, Ирина Бразговка, Светлана Рубан, Павел Новиков, Кирилл Захаров
Сюжет фильма:
Ученый с большой буквы и талантливый изобретатель – химик Артём Васильев — разработал уникальное лекарство против рака. Но его мечте спасти тысячи жизней кто-то жестоко помешал. Неизвестные подожгли лабораторию Артёма, во время инцидента погибла его жена, исчез сын, канули в Лету все архивы и данные разработок. Новый удар Васильеву нанесли следственные органы: теперь он – главный подозреваемый в поджоге и убийстве жены. От ареста его спасает только то, что на месте преступления задерживают исполнителя – бывшего военного химика Фёдора Пашнина, которого с ожогами и под конвоем доставляют в больницу. Одержимый местью Артём проникает в палату к Фёдору, чтобы расправиться с тем, кто отнял у него самое дорогое в жизни. И там совершенно неожиданно сталкивается с киллером, охотящимся на Пашнина. Своим вмешательством Артём, сам того не желая, спасает своего врага, который сообщает: его сын жив, и только он знает, как найти мальчика.....


Качество видео: SatRip

Продолжительность: 00:45:07 серия
Формат: AVI
Видео: XviD, 720x416, 1 505 kbps
Аудио: русский, AC3 2.0, 192 kbps

Код:

D:\Фильмы (роздача)\Mertvoe.serdtse.2014.SATRip.MediaClub\Mertvoe.serdtse.(4.seriya.iz.4).2014.XviD.SATRip.MediaClub.avi
   General
      Complete name : D:\Фильмы (роздача)\Mertvoe.serdtse.2014.SATRip.MediaClub\Mertvoe.serdtse.(4.seriya.iz.4).2014.XviD.SATRip.MediaClub.avi
      Format : AVI
      Format/Info : Audio Video Interleave
      File size : 551 MiB
      Duration : 45mn 7s
      Overall bit rate : 1 707 Kbps
      Writing application : VirtualDubMod 1.5.10.3 | www.virtualdub-fr.org || (build 2550/release)
      Writing library : Boilsoft AVI tool build 1/release
   Video #0
      ID : 0
      Format : MPEG-4 Visual
      Format profile : Advanced Simple@L5
      Format settings, BVOP : 1
      Format settings, QPel : No
      Format settings, GMC : No warppoints
      Format settings, Matrix : Custom
      Codec ID : XVID
      Codec ID/Hint : XviD
      Duration : 45mn 7s
      Bit rate : 1 505 Kbps
      Width : 720 pixels
      Height : 416 pixels
      Display aspect ratio : 1.731
      Frame rate : 25.000 fps
      Color space : YUV
      Chroma subsampling : 4:2:0
      Bit depth : 8 bits
      Scan type : Progressive
      Compression mode : Lossy
      Bits/(Pixel*Frame) : 0.201
      Stream size : 486 MiB (88%)
      Writing library : XviD 73
   Audio #1
      ID : 1
      Format : AC-3
      Format/Info : Audio Coding 3
      Mode extension : CM (complete main)
      Format settings, Endianness : Big
      Codec ID : 2000
      Duration : 45mn 7s
      Bit rate mode : Constant
      Bit rate : 192 Kbps
      Channel(s) : 2 channels
      Channel positions : Front: L R
      Sampling rate : 48.0 KHz
      Bit depth : 16 bits
      Compression mode : Lossy
      Stream size : 62.0 MiB (11%)
      Alignment : Split accross interleaves
      Interleave, duration : 40 ms (1.00 video frame)
      Interleave, preload duration : 500 ms
picpicpicpicpicpicpicpicpicpicpicpicpicpic
Для увеличения картинки щелкните мышкой по превью

Этот торрент недоступен для скачивания без регистрации, однако доступен по публичной magnet-ссылке (источники с публичных трекеров). Перед использованием ссылки прочтите, пожалуйста Пользовательское соглашение, а также как можно дольше оставайтесь на раздаче! Для того, чтобы скачать сам торрент-файл (который видит больше источников), а также для того, чтобы поблагодарить релизера, вам необходимо зарегистрироваться. Если регистрироваться лень - вы можете также попробовать скачать релиз по нашим партнерским ссылкам ниже.

[underverse.su].t38053.torrent
Трекер: Зарегистрирован   [ 07.04.2014 05:35 ]  

Статус: проверено (by 90ytr90 at 07.04.2014 17:48)
Поблагодарили: 1 человек
Тип торрента: публичный - доступные источники с открытых трекеров: 
Размер: 2,15 GB (занимает 0,49 DVDR, для записи нужно 1 болванка DVDR/RW)
 
 
Похожие темы
Форум Тема Автор Торрент Отв. Посл. сооб.
xUSSR сериалы Мёртвое сердце / Серии: 1-4 из 4 (Артур Румынский) [2014 г., Криминал, Мелодрама, WEB-DLRip-AVC] Ведьмочка
0 | 0

0 | 393

13

24.09.2014 19:30

xUSSR сериалы [BD / Remux / BDRip / WEB-DL / HDTV 1080/720р] Мёртвое сердце / Серии: 1-4 из 4 (Артур Румынский) [2014 г., Криминал, Мелодрама, WEB-DL 1080p] Ведьмочка
0 | 0

0 | 638

10

23.09.2014 18:41


Яндекс.Метрика powered by Sphinx


В Н И М А Н И Е
Сайт не распространяет и не хранит электронные версии произведений, а лишь бесплатно и без коммерческой выгоды (не требуя взамен платы,
SMS и т.д.) предоставляет доступ к создаваемому пользователями каталогу ссылок на торрент-файлы, которые содержат только списки хеш-сумм.
Убедительная просьба с жалобами обращаться напрямую к пользователю, разместившему торрент файл.

Вверх